Remember Me
A password will be e-mailed to you.
Please enter your username or email address. You will receive a link to create a new password via email.
Cancel
PerfectHDMovies.me

Neighbors 2 Sorority Rising 2016 1080p BluRay H264 AAC mp4 – 1.4GB

Neighbors 2: Sorority Rising    

R 92 min HollywoodHollywood Blu-Ray 1080p

6.0
IMDB: 6.0/10 26,374 votes

, , ,

N/A

USA

Report error

Neighbors 2 Sorority Rising 2016 1080p BluRay H264 AAC mp4 Neighbors 2 Sorority Rising 2016 1080p BluRay H264 AAC mp4 1.4GB

Neighbors 2 Sorority Rising 2016 1080p BluRay H264 AAC mp4 1.4GB

Neighbors.2.Sorority.Rising.2016.1080p.BluRay.H264.AAC.mp4



Format : MPEG-4
Format profile : Base Media
Codec ID : isom
File size : 1.40 GiB
Duration : 1h 32mn
Overall bit rate : 2 170 Kbps
Writing application : Lavf57.23.100

Video
ID : 1
Format : AVC
Format/Info : Advanced Video Codec
Format profile : [email protected]
Format settings, CABAC : Yes
Format settings, ReFrames : 4 frames
Codec ID : avc1
Codec ID/Info : Advanced Video Coding
Duration : 1h 32mn
Bit rate : 2 050 Kbps
Width : 1 920 pixels
Height : 800 pixels
Display aspect ratio : 2.40:1
Frame rate mode : Constant
Frame rate : 23.976 fps
Color space : YUV
Chroma subsampling : 4:2:0
Bit depth : 8 bits
Scan type : Progressive
Bits/(Pixel*Frame) : 0.056
Stream size : 1.32 GiB (94%)

Audio
ID : 2
Format : AAC
Format/Info : Advanced Audio Codec
Format profile : LC
Codec ID : 40
Duration : 1h 32mn
Bit rate mode : Constant
Bit rate : 114 Kbps
Channel(s) : 2 channels
Channel positions : Front: L R
Sampling rate : 48.0 KHz
Compression mode : Lossy
Stream size : 75.2 MiB (5%)

  
Neighbors 2 Sorority Rising 2016 1080p BluRay H264 AAC mp41.4GBNeighbors 2 Sorority Rising 2016 1080p BluRay H264 AAC mp41.4GBNeighbors 2 Sorority Rising 2016 1080p BluRay H264 AAC mp41.4GB


USERSCLOUD
*
*
*
MULTIUP
*
JHEBERG
*
GO4UP 
 

 

No links available
No downloads available

Genres

Related movies

Watch Dragon ball super