Remember Me
A password will be e-mailed to you.
Please enter your username or email address. You will receive a link to create a new password via email.
Cancel
PerfectHDMovies.me

Neerja 2016 WEBRip x264 AAC Hindi-ViZNU

Neerja    

N/A 122 min Bollywood

8.2
IMDB: 8.2/10 5,079 votes

, ,

N/A

India

Report error

Neerja 2016 WEBRip x264 AAC Hindi-ViZNU - PerfectHDMovies

Neerja 2016 WEBRip x264 AAC Hindi-ViZNU

Format                                   : MPEG-4
File size                                : 577 MiB
Duration                                 : 1h 56mn
Overall bit rate                         : 691 Kbps

Video
Format                                   : AVC
Bit rate                                 : 648 Kbps
Width                                    : 656 pixels
Height                                   : 288 pixels
Display aspect ratio                     : 2.25:1
Frame rate mode                          : Constant
Frame rate                               : 25.000 fps
Bit depth                                : 8 bits
Stream size                              : 541 MiB (94%)
Writing library                          : x264 
Audio
Format                                   : AAC
Bit rate mode                            : Variable
Bit rate                                 : 39.9 Kbps
Channel(s)                               : 2 channels
Channel positions                        : Front: L R
Sampling rate                            : 48.0 KHz
Stream size                              : 33.3 MiB (6%)
Language                                 : Hindi                       
LETWATACH
*
*
USERSFILES
*
*
*
JHEBERG
*
Neerja 2016 WEBRip x264 AAC Hindi-ViZNU
Neerja 2016 WEBRip x264 AAC Hindi-ViZNU
No links available
No downloads available

Genres

Related movies

Watch Dragon ball super