Neerja 2016 WEBRip x264 AAC Hindi-ViZNU

Neerja 2016 WEBRip x264 AAC Hindi-ViZNU - PerfectHDMovies

Neerja 2016 WEBRip x264 AAC Hindi-ViZNU

Format                                   : MPEG-4
File size                                : 577 MiB
Duration                                 : 1h 56mn
Overall bit rate                         : 691 Kbps

Video
Format                                   : AVC
Bit rate                                 : 648 Kbps
Width                                    : 656 pixels
Height                                   : 288 pixels
Display aspect ratio                     : 2.25:1
Frame rate mode                          : Constant
Frame rate                               : 25.000 fps
Bit depth                                : 8 bits
Stream size                              : 541 MiB (94%)
Writing library                          : x264 
Audio
Format                                   : AAC
Bit rate mode                            : Variable
Bit rate                                 : 39.9 Kbps
Channel(s)                               : 2 channels
Channel positions                        : Front: L R
Sampling rate                            : 48.0 KHz
Stream size                              : 33.3 MiB (6%)
Language                                 : Hindi                       
LETWATACH
*
*
USERSFILES
*
*
*
JHEBERG
*