Remember Me
A password will be e-mailed to you.
Please enter your username or email address. You will receive a link to create a new password via email.
Cancel
PerfectHDMovies.me

Neerja (2016) – 720p – WebHD-Rip – Hindi – x264 – AC3 – 2.0 – Mafiaking – M2Tv – 900 MB

Neerja    

N/A 122 min BollywoodBollywood HDRip 720p

8.3
IMDB: 8.3/10 4,262 votes

, ,

N/A

India

Report error

 neerja-poster-2.jpg
Ratings: 8.2/10

Genere: Biography, Drama, Thriller

General
Unique ID : 194623907207923809155471316033590509398 (0x926B3379E21208DA8245CAEC2B47BF56)
Complete name : Neerja (2016) - 720p - WebHD-Rip - Hindi - x264 - AC3 - 2.0 - Mafiaking - M2Tv.mkv
Format : Matroska
Format version : Version 4 / Version 2
File size : 902 MiB
Duration : 1h 56mn
Overall bit rate : 1 081 Kbps
Movie name : Neerja (2016) - 720p - WebHD-Rip - Hindi - x264 - AC3 - 2.0 - Mafiaking - M2Tv
Encoded date : UTC 2016-04-24 17:07:37
Writing application : mkvmerge v7.9.0 ('Birds') 64bit
Writing library : libebml v1.3.1 + libmatroska v1.4.2

Video
ID : 1
Format : AVC
Format/Info : Advanced Video Codec
Format profile : [email protected]
Format settings, CABAC : Yes
Format settings, ReFrames : 4 frames
Codec ID : V_MPEG4/ISO/AVC
Duration : 1h 56mn
Bit rate : 951 Kbps
Width : 1 280 pixels
Height : 544 pixels
Display aspect ratio : 2.35:1
Frame rate mode : Constant
Frame rate : 25.000 fps
Color space : YUV
Chroma subsampling : 4:2:0
Bit depth : 8 bits
Scan type : Progressive
Bits/(Pixel*Frame) : 0.055
Stream size : 777 MiB (86%)
Title : Mafiaking
Language : Hindi
Default : Yes
Forced : No

Audio
ID : 2
Format : AC-3
Format/Info : Audio Coding 3
Mode extension : CM (complete main)
Format settings, Endianness : Big
Codec ID : A_AC3
Duration : 1h 56mn
Bit rate mode : Constant
Bit rate : 128 Kbps
Channel(s) : 2 channels
Channel positions : Front: L R
Sampling rate : 48.0 KHz
Compression mode : Lossy
Stream size : 107 MiB (12%)
Title : Mafiaking
Language : Hindi
Default : Yes
Forced : No

 1df040.th.png 256cbe.th.png 3e3935.th.png 4ad784.th.png 5002e9.th.png 64d9d9.th.png 7d00ed.th.png 801037.th.png 986af3.th.png

Special Thanks To Team EXDR For Source.

LETWATACH
*
*
USERSFILES
*
*
*
*
 

 

Neerja (2016) – 720p – WebHD-Rip – Hindi – x264 – AC3 – 2.0 – Mafiaking – M2Tv – 900 MB
Neerja (2016) – 720p – WebHD-Rip – Hindi – x264 – AC3 – 2.0 – Mafiaking – M2Tv – 900 MB
No links available
No downloads available

Genres

Related movies

Watch Dragon ball super