Remember Me
A password will be e-mailed to you.
Please enter your username or email address. You will receive a link to create a new password via email.
Cancel
PerfectHDMovies.me

Neerja (2016) – 720p – BluRay – Hindi – x264 – AC3 – 5.1 – Mafiaking – M2Tv 980Mb

BollywoodBollywood Blu-Ray 720p

8.2
IMDB: 8.2/10 votes

, ,

India

Report error

Neerja (2016) - 720p - BluRay - Hindi - x264 - AC3 - 5.1 - Mafiaking - M2Tv

Neerja (2016) – 720p – BluRay – Hindi – x264 – AC3 – 5.1 – Mafiaking – M2Tv 980Mb

Ratings: 8.2/10
Genere: Biography, Drama, Thriller

General
Unique ID : 181795920441104371457917094686526925448 (0x88C49EE5D5A232F9997B82E2AB39EA88)
Complete name : Neerja (2016) - 720p - BluRay - Hindi - x264 - AC3 - 5.1 - Mafiaking - M2Tv.mkv
Format : Matroska
Format version : Version 4 / Version 2
File size : 980 MiB
Duration : 2h 1mn
Overall bit rate : 1 126 Kbps
Movie name : Neerja (2016) - 720p - BluRay - Hindi - x264 - AC3 - 5.1 - Mafiaking - M2Tv
Encoded date : UTC 2016-05-19 20:32:12
Writing application : mkvmerge v7.9.0 ('Birds') 64bit
Writing library : libebml v1.3.1 + libmatroska v1.4.2

Video
ID : 1
Format : AVC
Format/Info : Advanced Video Codec
Format profile : [email protected]
Format settings, CABAC : Yes
Format settings, ReFrames : 5 frames
Codec ID : V_MPEG4/ISO/AVC
Duration : 2h 1mn
Bit rate : 900 Kbps
Width : 1 280 pixels
Height : 544 pixels
Display aspect ratio : 2.35:1
Frame rate mode : Constant
Frame rate : 24.000 fps
Color space : YUV
Chroma subsampling : 4:2:0
Bit depth : 8 bits
Scan type : Progressive
Bits/(Pixel*Frame) : 0.054
Stream size : 783 MiB (80%)
Title : Mafiaking
Language : Hindi
Default : Yes
Forced : No
Color range : Limited
Color primaries : BT.709
Transfer characteristics : BT.709
Matrix coefficients : BT.709

Audio
ID : 2
Format : AC-3
Format/Info : Audio Coding 3
Mode extension : CM (complete main)
Format settings, Endianness : Big
Codec ID : A_AC3
Duration : 2h 1mn
Bit rate mode : Constant
Bit rate : 224 Kbps
Channel(s) : 6 channels
Channel positions : Front: L C R, Side: L R, LFE
Sampling rate : 48.0 KHz
Compression mode : Lossy
Stream size : 195 MiB (20%)
Title : Mafiaking
Language : Hindi
Default : Yes
Forced : No
No links available
No downloads available

Genres

Related movies

Watch Dragon ball super