Remember Me
A password will be e-mailed to you.
Please enter your username or email address. You will receive a link to create a new password via email.
Cancel
PerfectHDMovies.me

Mujhse Shaadi Karogi (2004) Untouched WEBHD 1080p {JamesBond007}~2.71 GB

Mujhse Shaadi Karogi    

N/A 163 min BollywoodBollywood WEB-DL 1080p

6.9
IMDB: 6.9/10 7,740 votes

, , ,

6 wins & 28 nominations.

India

Report error

Mujhse Shaadi Karogi (2004) Untouched WEBHD 1080p {JamesBond007}
Mujhse Shaadi Karogi (2004) Untouched WEBHD 1080p {JamesBond007}~2.71 GB

Information

Video
ID : 1
Format : AVC
Format/Info : Advanced Video Codec
Format profile : [email protected]
Format settings, CABAC : Yes
Format settings, ReFrames : 3 frames
Codec ID : avc1
Codec ID/Info : Advanced Video Coding
Duration : 2h 31mn
Bit rate : 2 428 Kbps
Width : 1 920 pixels
Height : 1 080 pixels
Display aspect ratio : 16:9
Frame rate mode : Constant
Frame rate : 25.000 fps
Color space : YUV
Chroma subsampling : 4:2:0
Bit depth : 8 bits
Scan type : Progressive
Bits/(Pixel*Frame) : 0.047
Stream size : 2.57 GiB (95%)

Audio
ID : 2
Format : AAC
Format/Info : Advanced Audio Codec
Format profile : LC
Codec ID : 40
Duration : 2h 31mn
Bit rate mode : Constant
Bit rate : 126 Kbps
Channel count : 2 channels
Channel positions : Front: L R
Sampling rate : 44.1 KHz
Compression mode : Lossy
Stream size : 136 MiB (5%)

https://extraimago.com/images/2016/05/02/vlcsnap-2016-05-02-13h26m52s013.png
 https://extraimago.com/images/2016/05/02/vlcsnap-2016-05-02-13h27m12s999.png
*
*
*
*
MULTIUP
*
*
GO4UP 
No links available
No downloads available

Genres

Related movies

Watch Dragon ball super