Remember Me
A password will be e-mailed to you.
Please enter your username or email address. You will receive a link to create a new password via email.
Cancel
PerfectHDMovies.me

Motu Patlu – King of Kings (2016) Hindi Original 480p DVDRip – x264] Team PHDM – 450 MB

BollywoodBollywood 300MB Movies

IMDB: /10 votes

Report error

motu_patlu_-_king_of_kings

Motu Patlu – King of Kings (2016) Hindi Original 480p DVDRip – x264] Team PHDM – 450 MB

Format : Matroska 
Format version : Version 4 / Version 2 
File size : 459 MiB 
Duration : 1h 49mn 
Overall bit rate : 585 Kbps 
Movie name : Perfecthdmovies.com 

Video 
ID : 1 
Format : AVC 
Format/Info : Advanced Video Codec 
Format profile : [email protected] 
Format settings, CABAC : Yes 
Format settings, ReFrames : 4 frames 
Codec ID : V_MPEG4/ISO/AVC 
Duration : 1h 49mn 
Bit rate : 455 Kbps 
Width : 608 pixels 
Height : 424 pixels 
Display aspect ratio : 1.434 
Frame rate mode : Constant 
Frame rate : 23.976 fps 
Color space : YUV 
Chroma subsampling : 4:2:0 
Bit depth : 8 bits 
Scan type : Progressive 
Bits/(Pixel*Frame) : 0.074 
Stream size : 350 MiB (76%) 
Title : Perfecthdmovies.com 
Language : English 
Default : Yes 
Forced : Yes 

Audio 
ID : 2 
Format : AC-3 
Format/Info : Audio Coding 3 
Mode extension : CM (complete main) 
Format settings, Endianness : Big 
Codec ID : A_AC3 
Duration : 1h 49mn 
Bit rate mode : Constant 
Bit rate : 128 Kbps 
Channel(s) : 6 channels 
Channel positions : Front: L C R, Side: L R, LFE 
Sampling rate : 44.1 KHz 
Compression mode : Lossy 
Stream size : 100 MiB (22%) 
Title : Perfecthdmovies.com 
Language : Hindi 
Default : No 
Forced : No 

Text 
ID : 3 
Format : UTF-8 
Codec ID : S_TEXT/UTF8 
Codec ID/Info : UTF-8 Plain Text 
Title : Perfecthdmovies.com 
Default : Yes 

ss

Motu Patlu - King of Kings (2016) Hindi Original 480p DVDRip - x264] Team PHDM - 450 MBMotu Patlu - King of Kings (2016) Hindi Original 480p DVDRip - x264] Team PHDM - 450 MBMotu Patlu - King of Kings (2016) Hindi Original 480p DVDRip - x264] Team PHDM - 450 MB

wo

*
*
FLASHSX
*
LETWATCH
dl
*
USERSFILES
*
*
*
*
No links available
No downloads available

Leave a Reply

Genres

Related movies

Watch Dragon ball super