Remember Me
A password will be e-mailed to you.
Please enter your username or email address. You will receive a link to create a new password via email.
Cancel
PerfectHDMovies.me

Mississippi Masala (1991) UNRated DvdRip Dual Audio (Org 2ch Hindi-Eng)~Vision 1.55 GB

Mississippi Masala    

R 118 min Dual AudioDual Audio DVDRip

6.6
IMDB: 6.6/10 3,902 votes

, , ,

5 wins & 2 nominations.

UK, USA

Report error

Mississippi Masala (1991) UNRated DvdRip Dual Audio (Org 2ch Hindi-Eng)~Vision 1.55 GB

Mississippi Masala (1991) UNRated DvdRip Dual Audio (Org 2ch Hindi-Eng)~Vision  1.55 GB

Format : Matroska
Format version : Version 4 / Version 2
File size : 1.53 GiB
Duration : 1 h 53 min
Overall bit rate : 1 934 kb/s
Movie name : Ripper°Vision



Video
ID : 1
Format : MPEG-4 Visual
Format profile : Advanced [email protected]
Format settings, BVOP : 4
Format settings, QPel : No
Format settings, GMC : No warppoints
Format settings, Matrix : Custom
Muxing mode : Packed bitstream
Codec ID : V_MS/VFW/FOURCC / XVID
Codec ID/Hint : XviD
Duration : 1 h 52 min
Bit rate : 1 583 kb/s
Width : 672 pixels
Height : 352 pixels
Display aspect ratio : 1.909
Frame rate mode : Constant
Frame rate : 25.000 FPS
Original frame rate : 23.976 FPS
Color space : YUV
Chroma subsampling : 4:2:0
Bit depth : 8 bits
Scan type : Progressive
Compression mode : Lossy
Bits/(Pixel*Frame) : 0.268
Stream size : 1.25 GiB (82%)
Writing library : XviD 1.2.0SMP (UTC 2006-01-08)
Default : Yes
Forced : No

Audio #1
ID : 2
Format : AC-3
Format/Info : Audio Coding 3
Mode extension : CM (complete main)
Format settings, Endianness : Big
Codec ID : A_AC3
Duration : 1 h 53 min
Bit rate mode : Constant
Bit rate : 224 kb/s
Channel(s) : 2 channels
Channel positions : Front: L R
Sampling rate : 44.1 kHz
Frame rate : 28.711 FPS (1536 spf)
Compression mode : Lossy
Stream size : 181 MiB (12%)
Title : Vision Org VCD Hindi
Language : Hindi
Default : Yes
Forced : Yes

Audio #2
ID : 3
Format : AC-3
Format/Info : Audio Coding 3
Mode extension : CM (complete main)
Format settings, Endianness : Big
Codec ID : A_AC3
Duration : 1 h 53 min
Bit rate mode : Constant
Bit rate : 128 kb/s
Channel(s) : 2 channels
Channel positions : Front: L R
Sampling rate : 48.0 kHz
Frame rate : 31.250 FPS (1536 spf)
Compression mode : Lossy
Stream size : 103 MiB (7%)
Title : Vision
Language : English
Default : No
Forced : No

ss
Mississippi Masala (1991) UNRated DvdRip Dual Audio (Org 2ch Hindi-Eng)~Vision 1.55 GBMississippi Masala (1991) UNRated DvdRip Dual Audio (Org 2ch Hindi-Eng)~Vision 1.55 GBMississippi Masala (1991) UNRated DvdRip Dual Audio (Org 2ch Hindi-Eng)~Vision 1.55 GB

wo

*
*
FLASHSX
*
dl

No links available
No downloads available

Leave a Reply

Genres

Related movies

Watch Dragon ball super