Remember Me
A password will be e-mailed to you.
Please enter your username or email address. You will receive a link to create a new password via email.
Cancel
PerfectHDMovies.me

Miss Frontier Mail 1936 Webrip Swarint mp4 ~ 824 MB

BollywoodBollywood HDRip 720p

IMDB: /10 votes

Report error

 
 
specs General Complete name : E:Miss Frontier Mail.mp4 Format : MPEG-4 Format profile : Base Media Codec ID : isom (isom/iso2/avc1/mp41) File size : 824 MiB Duration : 2h 22mn Overall bit rate : 806 Kbps Movie name : Miss Frontier Mail Writing application : Lavf56.1.100 Cover : Yes Video ID : 2 Format : AVC Format/Info : Advanced Video Codec Format profile : [email protected] Format settings, CABAC : Yes Format settings, ReFrames : 3 frames Codec ID : avc1 Codec ID/Info : Advanced Video Coding Duration : 2h 22mn Bit rate : 674 Kbps Width : 640 pixels Height : 480 pixels Display aspect ratio : 4:3 Frame rate mode : Variable Frame rate : 23.976 (24000/1001) fps Minimum frame rate : 23.974 fps Maximum frame rate : 23.981 fps Color space : YUV Chroma subsampling : 4:2:0 Bit depth : 8 bits Scan type : Progressive Bits/(Pixel*Frame) : 0.092 Stream size : 689 MiB (84%) Audio ID : 1 Format : AAC Format/Info : Advanced Audio Codec Format profile : LC Codec ID : 40 Duration : 2h 22mn Bit rate mode : Constant Bit rate : 126 Kbps Channel(s) : 2 channels Channel positions : Front: L R Sampling rate : 44.1 KHz Frame rate : 43.066 fps (1024 spf) Compression mode : Lossy Stream size : 128 MiB (16%) Default : Yes Alternate group : 1 Directed by  Homi Wadia Fearless Nadia Savita / Miss 1936 Gulshan Sardar Mansur Sundar Master Mohammed ……. also THE MD. Maganlal Sayani Atish Shyamlal  John Cawas Jal Khambatta Jaidev Minoo the Mystic

 

 

 

 

 

 

 

 

 

   
   
*
*
*
*
*
*
 
 
 
 

 

 
No links available
No downloads available

Genres

Related movies

Watch Dragon ball super