Remember Me
A password will be e-mailed to you.
Please enter your username or email address. You will receive a link to create a new password via email.
Cancel
PerfectHDMovies.me

Mechanic.Resurrection.2016.720p.Web-Rip.Dual.Audio.(Hindi(Cam)-English).x264.Aac.By.Sam.Team.XMR~800MB

Mechanic: Resurrection    

R 98 min Dual AudioDual Audio WEB-DL 720p

6.0
IMDB: 6.0/10 4,013 votes

, , ,

N/A

France, USA

Report error

Mechanic.Resurrection.2016.720p.Web-Rip.Dual.Audio.(Hindi(Cam)-English).x264.Aac.By.Sam.Team.XMR~800MB

Mechanic.Resurrection.2016.720p.Web-Rip.Dual.Audio.(Hindi(Cam)-English).x264.Aac.By.Sam.Team.XMR~800MB

Format                      : Matroska
Format version              : Version 4 / Version 2
File size                   : 796 MiB
Duration                    : 1 h 37 min
Overall bit rate            : 1 138 kb/s
Encoded date                : UTC 2016-09-27 14:59:38
Writing application         : mkvmerge v8.1.0 (‘Psychedelic Postcard’) 32bit
Writing library             : libebml v1.3.1 + libmatroska v1.4.2Video
ID                          : 1
Format                      : AVC
Format/Info                 : Advanced Video Codec
Format profile              : [email protected]
Format settings, CABAC      : Yes
Format settings, ReFrames   : 4 frames
Codec ID                    : V_MPEG4/ISO/AVC
Duration                    : 1 h 37 min
Bit rate                    : 945 kb/s
Width                       : 1 280 pixels
Height                      : 544 pixels
Display aspect ratio        : 2.35:1
Frame rate mode             : Constant
Frame rate                  : 24.000 FPS
Color space                 : YUV
Chroma subsampling          : 4:2:0
Bit depth                   : 8 bits
Scan type                   : Progressive
Bits/(Pixel*Frame)          : 0.057
Stream size                 : 660 MiB (83%)
Writing library             : x264 core 148 r2638 7599210
Default                     : Yes
Forced                      : NoAudio #1
ID                          : 2
Format                      : AAC
Format/Info                 : Advanced Audio Codec
Format profile              : LC
Codec ID                    : A_AAC
Duration                    : 1 h 37 min
Bit rate                    : 96.0 kb/s
Channel(s)                  : 2 channels
Channel positions           : Front: L R
Sampling rate               : 44.1 kHz
Frame rate                  : 43.066 FPS (1024 spf)
Compression mode            : Lossy
Stream size                 : 67.1 MiB (8%)
Title                       : Olddilli
Language                    : Hindi
Default                     : Yes
Forced                      : Yes

Audio #2
ID                          : 3
Format                      : AAC
Format/Info                 : Advanced Audio Codec
Format profile              : LC
Codec ID                    : A_AAC
Duration                    : 1 h 37 min
Bit rate                    : 96.0 kb/s
Channel(s)                  : 2 channels
Channel positions           : Front: L R
Sampling rate               : 48.0 kHz
Frame rate                  : 46.875 FPS (1024 spf)
Compression mode            : Lossy
Stream size                 : 67.2 MiB (8%)
Language                    : English
Default                     : No
Forced                      : No

  
 Mechanic.Resurrection.2016.720p.Web-Rip.Dual.Audio.(Hindi(Cam)-English).x264.Aac.By.Sam.Team.XMR~800MB

LETWATCH

USERSCLOUD
*
*
*
*
*
 

 

No links available
No downloads available

Genres

Related movies

Watch Dragon ball super