Remember Me
A password will be e-mailed to you.
Please enter your username or email address. You will receive a link to create a new password via email.
Cancel
PerfectHDMovies.me

Mechanic Resurrection 2016 720p HC HDRip x264 Dual-Audio[Hindi(Cleaned) 2.0][English 2.0]…Hon3y 970 MiB

Mechanic: Resurrection    

R 98 min Dual AudioDual Audio Pre-Releases (Latest)

5.8
IMDB: 5.8/10 11,797 votes

, , ,

N/A

France, USA

Report error

Mechanic Resurrection 2016 720p HC HDRip x264 Dual-Audio[Hindi(Cleaned) 2.0][English 2.0]...Hon3y

Mechanic Resurrection 2016 720p HC HDRip x264 Dual-Audio[Hindi(Cleaned) 2.0][English 2.0]…Hon3y

Cleaned and sync by R3al_Warrior
Hindi audio Credits : Killer Blaze

Format                      : Matroska
Format version              : Version 4 / Version 2
File size                   : 970 MiB
Duration                    : 1h 37mn
Overall bit rate            : 1 386 Kbps

Video
ID                          : 1
Format                      : AVC
Format/Info                 : Advanced Video Codec
Format profile              : [email protected]
Format settings, CABAC      : Yes
Format settings, ReFrames   : 8 frames
Codec ID                    : V_MPEG4/ISO/AVC
Duration                    : 1h 37mn
Bit rate                    : 1 000 Kbps
Width                       : 1 280 pixels
Height                      : 536 pixels
Display aspect ratio        : 2.40:1
Frame rate mode             : Constant
Frame rate                  : 24.000 fps

Audio #1
ID                          : 2
Format                      : AAC
Format/Info                 : Advanced Audio Codec
Format profile              : LC
Codec ID                    : A_AAC
Duration                    : 1h 37mn
Bit rate                    : 192 Kbps
Channel(s)                  : 2 channels
Channel positions           : Front: L R
Sampling rate               : 48.0 KHz
Frame rate                  : 46.875 fps (1024 spf)
Compression mode            : Lossy
Delay relative to video     : 9ms
Stream size                 : 134 MiB (14%)
Language                    : English
Default                     : Yes
Forced                      : No

Audio #2
ID                          : 3
Format                      : AAC
Format/Info                 : Advanced Audio Codec
Format profile              : LC
Codec ID                    : A_AAC
Duration                    : 1h 37mn
Bit rate                    : 192 Kbps
Channel(s)                  : 2 channels
Channel positions           : Front: L R
Sampling rate               : 48.0 KHz
Frame rate                  : 46.875 fps (1024 spf)
Compression mode            : Lossy
Delay relative to video     : 9ms
Stream size                 : 134 MiB (14%)
Language                    : Hindi
Default                     : No
Forced                      : No
 
Mechanic Resurrection 2016 720p HC HDRip x264 Dual-Audio[Hindi(Cleaned) 2.0][English 2.0]...Hon3yMechanic Resurrection 2016 720p HC HDRip x264 Dual-Audio[Hindi(Cleaned) 2.0][English 2.0]...Hon3yMechanic Resurrection 2016 720p HC HDRip x264 Dual-Audio[Hindi(Cleaned) 2.0][English 2.0]...Hon3y
*
USERSCLOUD
Banned
*
*
*
*
*
GO4UP 
 
No links available
No downloads available

Genres

Related movies

Watch Dragon ball super