Remember Me
A password will be e-mailed to you.
Please enter your username or email address. You will receive a link to create a new password via email.
Cancel
PerfectHDMovies.me

Maximum Risk (1996) 720p BRRip HEVC x265 [Dual-Audio][English 2.0+Hindi 2.0] Esubs [PKG] 990MB

Maximum Risk    

R 101 min Dual AudioDual Audio Blu-Ray 720pHEVC

5.4
IMDB: 5.4/10 15,122 votes

, , ,

N/A

USA

Report error

Video
ID : 1
Format : HEVC
Format/Info : High Efficiency Video Coding
Codec ID : V_MPEGH/ISO/HEVC
Duration : 1h 40mn
Bit rate : 1 089 Kbps
Width : 1 280 pixels
Height : 536 pixels
Display aspect ratio : 2.40:1
Frame rate mode : Constant
Frame rate : 23.976 fps
Bits/(Pixel*Frame) : 0.066
Stream size : 783 MiB (79%)
Default : Yes
Forced : No
 
Audio #1
ID : 2
Format : AC-3
Format/Info : Audio Coding 3
Mode extension : CM (complete main)
Format settings, Endianness : Big
Codec ID : A_AC3
Duration : 1h 40mn
Bit rate mode : Constant
Bit rate : 128 Kbps
Channel(s) : 2 channels
Channel positions : Front: L R
Sampling rate : 48.0 KHz
Bit depth : 16 bits
Compression mode : Lossy
Stream size : 92.1 MiB (9%)
Language : Hindi
Default : Yes
Forced : No
 
Audio #2
ID : 3
Format : AC-3
Format/Info : Audio Coding 3
Mode extension : CM (complete main)
Format settings, Endianness : Big
Codec ID : A_AC3
Duration : 1h 40mn
Bit rate mode : Constant
Bit rate : 128 Kbps
Channel(s) : 2 channels
Channel positions : Front: L R
Sampling rate : 48.0 KHz
Bit depth : 16 bits
Compression mode : Lossy
Stream size : 92.1 MiB (9%)
Language : English
Default : No
Forced : No
Maximum_Risk_1996_720p_BRRip_HEVC_x265_Dual_A.jpg

 

No links available
No downloads available

Genres

Related movies

Watch Dragon ball super