Remember Me
A password will be e-mailed to you.
Please enter your username or email address. You will receive a link to create a new password via email.
Cancel
PerfectHDMovies.me

Mastizaade (2016) – 720p – DVD-Rip – Hindi – x264 – AC3 – 5.1 – [PKG] ~ 1GB

Mastizaade    

N/A 119 min BollywoodBollywood DVDRip 720p

2.4
IMDB: 2.4/10 1,166 votes

, , ,

N/A

India

Report error

mastizaade-poster-2.jpg
 
General
Unique ID : 239924053634107514743676698126499646129 (0xB47FB122254285078D05DFC045AB0AB1)
Complete name : E:\encode\Mastizaade (2016) - 720p - DVD-Rip - Hindi - x264 - AC3 - 5.1 - [PKG]\Mastizaade (2016) - 720p - DVD-Rip - Hindi - x264 - AC3 - 5.1 - [PKG].mkv
Format : Matroska
Format version : Version 4 / Version 2
File size : 1 018 MiB
Duration : 1h 46mn
Overall bit rate : 1 335 Kbps
Movie name : Mastizaade (2016) - 720p - DVD-Rip - Hindi - AC3 - 5.1 - [PKG]
Encoded date : UTC 2016-03-21 11:00:29
Writing application : mkvmerge v8.9.0 ('Father Daughter') 64bit
Writing library : libebml v1.3.3 + libmatroska v1.4.4
DURATION : 01:46:38.752000000
NUMBER_OF_FRAMES : 199961
NUMBER_OF_BYTES : 179165056

Video
ID : 1
Format : AVC
Format/Info : Advanced Video Codec
Format profile : [email protected]
Format settings, CABAC : Yes
Format settings, ReFrames : 5 frames
Codec ID : V_MPEG4/ISO/AVC
Duration : 1h 46mn
Bit rate : 1 109 Kbps
Width : 1 280 pixels
Height : 544 pixels
Display aspect ratio : 2.35:1
Frame rate mode : Constant
Frame rate : 23.976 fps
Color space : YUV
Chroma subsampling : 4:2:0
Bit depth : 8 bits
Scan type : Progressive
Bits/(Pixel*Frame) : 0.066
Stream size : 827 MiB (81%)
Title : [PKG]
Writing library : x264 core 148 r2638 7599210
Default : Yes
Forced : No

Audio
ID : 2
Format : AC-3
Format/Info : Audio Coding 3
Mode extension : CM (complete main)
Format settings, Endianness : Big
Codec ID : A_AC3
Duration : 1h 46mn
Bit rate mode : Constant
Bit rate : 224 Kbps
Channel(s) : 6 channels
Channel positions : Front: L C R, Side: L R, LFE
Sampling rate : 48.0 KHz
Bit depth : 16 bits
Compression mode : Lossy
Stream size : 171 MiB (17%)
Title : [PKG]
Language : Hindi
Default : Yes
Forced : Yes
vlcsnap-2016-03-25-11h22m54s186.png
vlcsnap-2016-03-25-11h23m15s140.png
vlcsnap-2016-03-25-11h23m27s1.png
vlcsnap-2016-03-25-11h23m56s26.png
vlcsnap-2016-03-25-11h24m27s74.png
Mastizaade2016-720p-DVD-Rip-Hindi-x264-AC3-5.1-PKG.mkv_thumbs_2016.03.25_11.22.22.jpgThanks to DDR

Sample

LETWATACH
*
USERSCLOUD
*
*
*
*
*
GO4UP 
 

 

No links available
No downloads available

Genres

Related movies

Watch Dragon ball super