Remember Me
A password will be e-mailed to you.
Please enter your username or email address. You will receive a link to create a new password via email.
Cancel
PerfectHDMovies.me

Manamantha – 2016 – 1080p – WEB-DL – AVC AAC – DDR 3.1GB

All of Us    

N/A 164 min MalayalamSouthTelugu

8.0
IMDB: 8.0/10 132 votes

, , ,

N/A

India

Report error

Manamantha - 2016 - 1080p - WEB-DL - AVC AAC - DDR 3.1GB

Manamantha – 2016 – 1080p – WEB-DL – AVC AAC – DDR 3.1GB

General
Complete name               : Manamantha - 2016 - 1080p - WEB-DL - AVC AAC - DDR.mp4
Format                      : MPEG-4
Format profile              : Base Media
File size                   : 3.11 GiB
Duration                    : 2 h 16 min
Overall bit rate            : 3 253 kb/s
Writing application         : Lavf54.63.104

Video
ID                          : 1
Format                      : AVC
Format/Info                 : Advanced Video Codec
Format profile              : [email protected]
Format settings, CABAC      : Yes
Format settings, ReFrames   : 2 frames
Codec ID                    : avc1
Codec ID/Info               : Advanced Video Coding
Duration                    : 2 h 16 min
Bit rate                    : 3 121 kb/s
Width                       : 1 920 pixels
Height                      : 1 080 pixels
Display aspect ratio        : 16:9
Frame rate mode             : Variable
Frame rate                  : 23.976 (24000/1001) FPS
Minimum frame rate          : 23.974 FPS
Maximum frame rate          : 23.981 FPS
Color space                 : YUV
Chroma subsampling          : 4:2:0
Bit depth                   : 8 bits
Scan type                   : Progressive
Bits/(Pixel*Frame)          : 0.063
Stream size                 : 2.98 GiB (96%)
Color range                 : Limited
Color primaries             : BT.709
Transfer characteristics    : BT.709
Matrix coefficients         : BT.709

Audio
ID                          : 2
Format                      : AAC
Format/Info                 : Advanced Audio Codec
Format profile              : LC
Codec ID                    : 40
Duration                    : 2 h 16 min
Bit rate mode               : Constant
Bit rate                    : 126 kb/s
Channel(s)                  : 2 channels
Channel positions           : Front: L R
Sampling rate               : 44.1 kHz
Frame rate                  : 43.066 FPS (1024 spf)
Compression mode            : Lossy
Stream size                 : 123 MiB (4%)
Default                     : Yes
Alternate group             : 1

ss

No links available
No downloads available

Genres

Related movies

Watch Dragon ball super