Remember Me
A password will be e-mailed to you.
Please enter your username or email address. You will receive a link to create a new password via email.
Cancel
PerfectHDMovies.me

Main Aur Charles (2015) – 1CD – WebHD-Rip – Hindi – x264 – MP3 – Mafiaking – M2Tv 699 MB

Main Aur Charles    

N/A 123 min Bollywood

6.7
IMDB: 6.7/10 352 votes

, , ,

N/A

India

Report error

Quote  Quote:

Ratings: 6.7/10

GENRE: Action, Biography, Crime

General
Unique ID : 197635888781442762086677092015757098889 (0x94AF49A20D77DFCD85BEACB07D4C7F89)
Complete name : Main Aur Charles (2015) – 1CD – WebHD-Rip – Hindi – x264 – MP3 – Mafiaking – M2Tv.mkv
Format : Matroska
Format version : Version 4 / Version 2
File size : 696 MiB
Duration : 2h 1mn
Overall bit rate : 802 Kbps
Movie name : Main Aur Charles (2015) – 1CD – WebHD-Rip – Hindi – x264 – MP3 – Mafiaking – M2Tv
Encoded date : UTC 2016-01-10 09:54:04
Writing application : mkvmerge v7.6.0 (‘Garden of Dreams’) 64bit built on Feb 8 2015 13:04:34
Writing library : libebml v1.3.1 + libmatroska v1.4.2

Video
ID : 1
Format : AVC
Format/Info : Advanced Video Codec
Format profile : [email protected]
Format settings, CABAC : Yes
Format settings, ReFrames : 4 frames
Codec ID : V_MPEG4/ISO/AVC
Duration : 2h 1mn
Bit rate : 720 Kbps
Width : 640 pixels
Height : 272 pixels
Display aspect ratio : 2.35:1
Frame rate mode : Constant
Frame rate : 29.970 fps
Color space : YUV
Chroma subsampling : 4:2:0
Bit depth : 8 bits
Scan type : Progressive
Bits/(Pixel*Frame) : 0.138
Stream size : 612 MiB (88%)
Title : Mafiaking
Language : Hindi
Default : Yes
Forced : No

Audio
ID : 2
Format : MPEG Audio
Format version : Version 1
Format profile : Layer 3
Mode : Joint stereo
Mode extension : MS Stereo
Codec ID : A_MPEG/L3
Codec ID/Hint : MP3
Duration : 2h 1mn
Bit rate mode : Constant
Bit rate : 80.0 Kbps
Channel(s) : 2 channels
Sampling rate : 32.0 KHz
Compression mode : Lossy
Stream size : 69.4 MiB (10%)
Title : Mafiaking
Writing library : LAME3.99r
Language : Hindi
Default : Yes
Forced : No

SAMPLE WITH IN TORRENT

*
*
*
*
No links available
No downloads available

Genres

Related movies

Watch Dragon ball super