Remember Me
A password will be e-mailed to you.
Please enter your username or email address. You will receive a link to create a new password via email.
Cancel
PerfectHDMovies.me

Maha Badmaash (1977) WEB-HD Untouched 1080p Hon3yHD~3.64 GB

Maha Badmaash    

N/A N/A BollywoodBollywood WEB-DL 1080p

4.7
IMDB: 4.7/10 7 votes

, , ,

N/A

India

Report error

Maha Badmaash (1977) WEB-HD Untouched 1080p Hon3yHD
Maha Badmaash (1977) WEB-HD Untouched 1080p Hon3yHD~3.64 GB

Format : MPEG-4
Format profile : Base Media
Codec ID : isom (isom/iso2/avc1/mp41)
File size : 3.64 GiB
Duration : 2h 5mn

Video
ID : 1
Format : AVC
Format/Info : Advanced Video Codec
Format profile : [email protected]
Format settings, CABAC : Yes
Format settings, ReFrames : 2 frames
Codec ID : avc1
Codec ID/Info : Advanced Video Coding
Duration : 2h 5mn
Bit rate : 4 040 Kbps
Width : 1 920 pixels
Height : 1 080 pixels
Display aspect ratio : 16:9
Frame rate mode : Constant
Frame rate : 25.000 fps
Color space : YUV
Chroma subsampling : 4:2:0
Bit depth : 8 bits
Scan type : Progressive
Bits/(Pixel*Frame) : 0.078
Stream size : 3.53 GiB (97%)

Audio
ID : 2
Format : AAC
Format/Info : Advanced Audio Codec
Format profile : LC
Codec ID : 40
Duration : 2h 5mn
Bit rate mode : Variable
Bit rate : 126 Kbps
Channel(s) : 2 channels
Channel positions : Front: L R
Sampling rate : 44.1 KHz
Frame rate : 43.066 fps (1024 spf)
Compression mode : Lossy
Stream size : 112 MiB (3%)

http://extraimago.com/images/2016/05/02/kklp2.th.png
http://extraimago.com/images/2016/05/02/kklp6.th.png
http://extraimago.com/images/2016/05/02/kklp1.th.png
*
VODLOCKER
*
*
*
*
*
No links available
No downloads available

Genres

Related movies

Watch Dragon ball super