Remember Me
A password will be e-mailed to you.
Please enter your username or email address. You will receive a link to create a new password via email.
Cancel
PerfectHDMovies.me

Magadheera (2009) 720p BDRip x264 Multi Audio [Tamil + Telugu + Hindi] 7Star

Magadheera    

N/A 166 min South Dubbed Blu-Ray 720p

7.7
IMDB: 7.7/10 7,913 votes

, , ,

3 wins.

India

Report error

Magadheera (2009) 720p BDRip x264 Multi Audio [Tamil + Telugu + Hindi] 7Star@perfecthdmovies

Magadheera (2009) 720p BDRip x264 Multi Audio [Tamil + Telugu + Hindi] 7Star

Format : Matroska
Format version : Version 4 / Version 2
File size : 1.25 GiB
Duration : 2h 44mn
Overall bit rate : 1 086 Kbps
Movie name : 7Star Hon3yHD
Video
ID : 1
Format : AVC
Format/Info : Advanced Video Codec
Format profile : [email protected]
Format settings, CABAC : Yes
Format settings, ReFrames : 8 frames
Codec ID : V_MPEG4/ISO/AVC
Duration : 2h 44mn
Bit rate : 764 Kbps
Width : 1 280 pixels
Height : 544 pixels
Display aspect ratio : 2.35:1
Frame rate mode : Constant
Frame rate : 24.000 fps
Color space : YUV
Chroma subsampling : 4:2:0
Bit depth : 8 bits
Scan type : Progressive
Bits/(Pixel*Frame) : 0.046
Stream size : 876 MiB (69%)
Title : 7Star Hon3yHD
Language : Telugu
Default : Yes
Forced : Yes
Audio #1
ID : 2
Format : MPEG Audio
Format version : Version 1
Format profile : Layer 3
Codec ID : A_MPEG/L3
Codec ID/Hint : MP3
Duration : 2h 44mn
Bit rate mode : Constant
Bit rate : 128 Kbps
Channel(s) : 2 channels
Sampling rate : 44.1 KHz
Compression mode : Lossy
Stream size : 151 MiB (12%)
Title : 7Star Hon3yHD
Writing library : LAME3.98r
Encoding settings : -m s -V 4 -q 3 -lowpass 17 -b 128
Language : Tamil
Default : Yes
Forced : Yes
Audio #2
ID : 3
Format : AC-3
Format/Info : Audio Coding 3
Mode extension : CM (complete main)
Format settings, Endianness : Big
Codec ID : A_AC3
Duration : 2h 44mn
Bit rate mode : Constant
Bit rate : 96.0 Kbps
Channel(s) : 2 channels
Channel positions : Front: L R
Sampling rate : 44.1 KHz
Bit depth : 16 bits
Compression mode : Lossy
Stream size : 113 MiB (9%)
Title : 7Star Hon3yHD
Language : Telugu
Default : No
Forced : No
Audio #3
ID : 4
Format : AC-3
Format/Info : Audio Coding 3
Mode extension : CM (complete main)
Format settings, Endianness : Big
Codec ID : A_AC3
Duration : 2h 44mn
Bit rate mode : Constant
Bit rate : 96.0 Kbps
Channel(s) : 2 channels
Channel positions : Front: L R
Sampling rate : 44.1 KHz
Bit depth : 16 bits
Compression mode : Lossy
Stream size : 113 MiB (9%)
Title : 7Star Hon3yHD
Language : Hindi
Default : No
Forced : No
Text
ID : 5
Format : UTF-8
Codec ID : S_TEXT/UTF8
Codec ID/Info : UTF-8 Plain Text
Title : 7Star Hon3yHD
Language : English
Default : No
Forced : No
 
*
USERSFILES
*
*
*
*
GO4UP 
 

 

No links available
No downloads available

Genres

Related movies

Watch Dragon ball super