Remember Me
A password will be e-mailed to you.
Please enter your username or email address. You will receive a link to create a new password via email.
Cancel
PerfectHDMovies.me

Madaari (2016) 720p WebRip x264 AC3 2.0 -DDR 1.59 GiB

Madaari    

N/A 133 min BollywoodBollywood WEB-DL 720p

8.1
IMDB: 8.1/10 3,246 votes

, , ,

N/A

India

Report error

Madaari (2016) 720p WebRip x264 AC3 2.0 -DDR

Madaari (2016) 720p WebRip x264 AC3 2.0 -DDR

Specs:
Source: WEB HD @ DDR
Format : Matroska
File size : 1.59 GiB
Duration : 2 h 10 min
Overall bit rate : 1 744 kb/s


Video
ID : 1
Format : AVC
Format/Info : Advanced Video Codec
Format profile : [email protected]
Format settings, CABAC : Yes
Format settings, ReFrames : 12 frames
Codec ID : V_MPEG4/ISO/AVC
Duration : 2 h 10 min
Bit rate : 1 499 kb/s
Width : 1 280 pixels
Height : 534 pixels
Display aspect ratio : 2.40:1
Frame rate mode : Variable
Frame rate : 23.804 FPS
Original frame rate : 24.000 FPS
Color space : YUV
Chroma subsampling : 4:2:0
Bit depth : 8 bits
Scan type : Progressive
Bits/(Pixel*Frame) : 0.092
Stream size : 1.36 GiB (85%)
Default : Yes
Forced : No
Color range : Limited
Color primaries : BT.709
Transfer characteristics : BT.709
Matrix coefficients : BT.709

Audio
ID : 2
Format : AC-3
Format/Info : Audio Coding 3
Mode extension : CM (complete main)
Format settings, Endianness : Big
Codec ID : A_AC3
Duration : 2 h 10 min
Bit rate mode : Constant
Bit rate : 256 kb/s
Channel(s) : 2 channels
Channel positions : Front: L R
Sampling rate : 44.1 kHz
Frame rate : 28.711 FPS (1536 spf)
Compression mode : Lossy
Stream size : 239 MiB (15%)
Language : Hindi
Default : Yes
Forced : No

 
Madaari (2016) 720p WebRip x264 AC3 2.0 -DDR Madaari (2016) 720p WebRip x264 AC3 2.0 -DDR Madaari (2016) 720p WebRip x264 AC3 2.0 -DDR
*
*
*
*
*
*
GO4UP 

No links available
No downloads available

Genres

Related movies

Watch Dragon ball super