Remember Me
A password will be e-mailed to you.
Please enter your username or email address. You will receive a link to create a new password via email.
Cancel
PerfectHDMovies.me

MAD Mad About Dance 2014 Hindi UnTouched 1080p x264 AVC AAC Hon3y ~ 2.69 GB

BollywoodBollywood HDRip 720p

IMDB: /10 votes

Report error

 
MAD – Mad About Dance 2014 Hindi UnTouched 1080p x264 AVC AAC – Hon3y
 
General Format : MPEG-4 Format profile : Base Media Codec ID : isom File size : 2.69 GiB Duration : 1h 57mn Overall bit rate mode : Variable Overall bit rate : 3 272 Kbps Video Format : AVC Format/Info : Advanced Video Codec Format profile : [email protected] Format settings, CABAC : Yes Format settings, ReFrames : 2 frames Codec ID : avc1 Codec ID/Info : Advanced Video Coding Duration : 1h 57mn Bit rate : 3 143 Kbps Width : 1 920 pixels Height : 1 080 pixels Display aspect ratio : 16:9 Frame rate mode : Constant Frame rate : 25.000 fps Color space : YUV Chroma subsampling : 4:2:0 Bit depth : 8 bits Scan type : Progressive Bits/(Pixel*Frame) : 0.061 Stream size : 2.58 GiB (96%) Audio Format : AAC Format/Info : Advanced Audio Codec Format profile : LC Codec ID : 40 Duration : 1h 57mn Bit rate mode : Variable Bit rate : 126 Kbps Channel(s) : 2 channels Channel positions : Front: L R Sampling rate : 44.1 KHz Compression mode : Lossy Stream size : 106 MiB (4%)

 

 

 

 

 

 

 

 

 

 

 

 

 

*
USERSCLOUD
*
*
*
*
*
 
 
 
 

 

 
No links available
No downloads available

Genres

Related movies

Watch Dragon ball super