Remember Me
A password will be e-mailed to you.
Please enter your username or email address. You will receive a link to create a new password via email.
Cancel
PerfectHDMovies.me

LoveShhuda (2016) – 1CD – Desi-PreDVD-Rip – Hindi – x264 – MP3 – Mafiaking – M2Tv

LoveShhuda    

N/A N/A BollywoodBollywood Pre-Releases (Latest)

7.7
IMDB: 7.7/10 N/A votes

, , ,

N/A

India

Report error

LoveShhuda (2016) - 1CD - Desi-PreDVD-Rip - Hindi - x264 - MP3 - Mafiaking - M2Tv @ Perfecthdmovies

LoveShhuda (2016) – 1CD – Desi-PreDVD-Rip – Hindi – x264 – MP3 – Mafiaking – M2Tv

General
Format : Matroska
Format version : Version 4 / Version 2
File size : 707 MiB
Duration : 2h 11mn
Overall bit rate : 753 Kbps
Encoded date : UTC 2016-02-20 19:42:55
Writing application : mkvmerge v7.9.0 ('Birds') 64bit
Writing library : libebml v1.3.1 + libmatroska v1.4.2
Video
ID : 1
Format : AVC
Format/Info : Advanced Video Codec
Format profile : [email protected]
Format settings, CABAC : Yes
Format settings, ReFrames : 4 frames
Codec ID : V_MPEG4/ISO/AVC
Duration : 2h 11mn
Bit rate : 671 Kbps
Width : 640 pixels
Height : 272 pixels
Display aspect ratio : 2.35:1
Frame rate mode : Constant
Frame rate : 25.000 fps
Color space : YUV
Chroma subsampling : 4:2:0
Bit depth : 8 bits
Scan type : Progressive
Bits/(Pixel*Frame) : 0.154
Stream size : 618 MiB (87%)
Title : Mafiaking
Language : Hindi
Default : Yes
Forced : No
Audio
ID : 2
Format : MPEG Audio
Format version : Version 1
Format profile : Layer 3
Mode : Joint stereo
Mode extension : MS Stereo
Codec ID : A_MPEG/L3
Codec ID/Hint : MP3
Duration : 2h 11mn
Bit rate mode : Constant
Bit rate : 80.0 Kbps
Channel(s) : 2 channels
Sampling rate : 32.0 KHz
Compression mode : Lossy
Stream size : 75.1 MiB (11%)
Title : Mafiaking
Writing library : LAME3.99r
Language : Hindi
Default : Yes
Forced : No
*
*
————–
————–
 

 

No links available
No downloads available

Genres

Related movies

Watch Dragon ball super