Remember Me
A password will be e-mailed to you.
Please enter your username or email address. You will receive a link to create a new password via email.
Cancel
PerfectHDMovies.me

Love Games (2016) – 1CD – DesiSCR-Rip – Hindi – x264 – MP3 – Mafiaking – M2Tv – 709 MB

Love Games    

N/A 114 min BollywoodBollywood Pre-Releases (Latest)

5.2
IMDB: 5.2/10 23 votes

, ,

N/A

India

Report error

 check-out-the-poster-of-love-games-1.jpg
 Ratings: 4.7/10

Genere: Thriller

General
Unique ID : 242384770592117714789825444381396114601 (0xB6599BD8A8490511A86B0F0405691CA9)
Complete name : Love Games (2016) - 1CD - DesiSCR-Rip - Hindi - x264 - MP3 - Mafiaking - M2Tv.mkv
Format : Matroska
Format version : Version 4 / Version 2
File size : 704 MiB
Duration : 1h 52mn
Overall bit rate : 873 Kbps
Movie name : Love Games (2016) - 1CD - DesiSCR-Rip - Hindi - x264 - MP3 - Mafiaking - M2Tv
Encoded date : UTC 2016-04-15 18:46:04
Writing application : mkvmerge v7.9.0 ('Birds') 64bit
Writing library : libebml v1.3.1 + libmatroska v1.4.2

Video
ID : 1
Format : AVC
Format/Info : Advanced Video Codec
Format profile : [email protected]
Format settings, CABAC : Yes
Format settings, ReFrames : 4 frames
Codec ID : V_MPEG4/ISO/AVC
Duration : 1h 52mn
Bit rate : 775 Kbps
Width : 640 pixels
Height : 272 pixels
Display aspect ratio : 2.35:1
Frame rate mode : Constant
Frame rate : 29.970 fps
Color space : YUV
Chroma subsampling : 4:2:0
Bit depth : 8 bits
Scan type : Progressive
Bits/(Pixel*Frame) : 0.149
Stream size : 612 MiB (87%)
Title : Mafiaking
Language : Hindi
Default : Yes
Forced : No

Audio
ID : 2
Format : MPEG Audio
Format version : Version 1
Format profile : Layer 3
Mode : Joint stereo
Mode extension : MS Stereo
Codec ID : A_MPEG/L3
Codec ID/Hint : MP3
Duration : 1h 52mn
Bit rate mode : Constant
Bit rate : 96.0 Kbps
Channel(s) : 2 channels
Sampling rate : 32.0 KHz
Compression mode : Lossy
Stream size : 77.4 MiB (11%)
Title : Mafiaking
Writing library : LAME3.99.5
Language : Hindi
Default : Yes
Forced : No

 12cae3.png

2c71df.png

362458.png

4db980.png

50db72.png

630879.png

7bf34e.png

84af8c.png

9372f0.png

101d87d.png

Special Thanks Team ICTV For Source.

*
VODLOCKER
USERSCLOUD
*
USERSFILES
*
*
*
*
 

 

No links available
No downloads available

Genres

Related movies

Watch Dragon ball super