Love Exchange 2015 1080p Untouched WebHD x264 AAC [TMB] 2.3GB

Love Exchange 2015 1080p Untouched WebHD x264 AAC [TMB] 2.3GB
Director

Love Exchange 2015 1080p Untouched WebHD x264 AAC [TMB] 2.3GB

Love Exchange 2015 1080p Untouched WebHD x264 AAC [TMB] 2.3GB

Advertising

General
Complete name : Love Exchange 2015 1080p Untouched WebHD x264 AAC [TMB].mp4
Format : MPEG-4
Format profile : Base Media
Codec ID : isom (isom/iso2/avc1/mp41)
File size : 2.31 GiB
Duration : 2 h 1 min
Overall bit rate mode : Variable
Overall bit rate : 2 727 kb/s

Video
Format : AVC
Format/Info : Advanced Video Codec
Format profile : [email protected]
Format settings, CABAC : Yes
Format settings, ReFrames : 2 frames
Codec ID : avc1
Codec ID/Info : Advanced Video Coding
Duration : 2 h 1 min
Bit rate : 2 598 kb/s
Width : 1 920 pixels
Height : 1 080 pixels
Display aspect ratio : 16:9
Frame rate mode : Constant
Frame rate : 24.000 FPS
Color space : YUV
Chroma subsampling : 4:2:0
Bit depth : 8 bits
Scan type : Progressive
Bits/(Pixel*Frame) : 0.052
Stream size : 2.20 GiB (95%)

Audio
Format : AAC
Format/Info : Advanced Audio Codec
Format profile : LC
Codec ID : 40
Duration : 2 h 1 min
Bit rate mode : Variable
Bit rate : 126 kb/s
Channel(s) : 2 channels
Channel positions : Front: L R
Sampling rate : 44.1 kHz
Frame rate : 43.066 FPS (1024 spf)
Compression mode : Lossy
Stream size : 109 MiB (5%)

ss

Nov 25, 2016 - Posted by Jasleev -

Comments are closed.