Remember Me
A password will be e-mailed to you.
Please enter your username or email address. You will receive a link to create a new password via email.
Cancel
PerfectHDMovies.me

London.Has.Fallen.2016. Dvdscr Hindi Dubbed–jimmy 782 MB

London Has Fallen    

N/A 99 min Dual AudioDual Audio Pre-Releases (Latest)

N/A
IMDB: N/A/10 N/A votes

, , ,

N/A

UK, USA, Bulgaria

Report error

 image

http://www.imdb.com/title/tt3300542/

In London for the Prime Minister’s funeral, Mike Banning discovers a plot to assassinate all the attending world leaders.
Director: Babak Najafi
Writers: Creighton Rothenberger (screenplay), Katrin Benedikt (screenplay) |
Stars: Gerard Butler, Aaron Eckhart, Morgan Freeman |

Video
ID : 1
Format : AVC
Format/Info : Advanced Video Codec
Format profile : [email protected]
Format settings, CABAC : Yes
Format settings, ReFrames : 4 frames
Codec ID : avc1
Codec ID/Info : Advanced Video Coding
Duration : 1h 24mn
Bit rate : 1 041 Kbps
Width : 640 pixels
Height : 322 pixels
Display aspect ratio : 1.988
Frame rate mode : Constant
Frame rate : 29.970 (30000/1001) fps
Color space : YUV
Chroma subsampling : 4:2:0
Bit depth : 8 bits
Scan type : Progressive
Bits/(Pixel*Frame) : 0.168
Stream size : 625 MiB (80%)
Writing library : x264 core 142 r2479 dd79a61
Encoding settings : cabac=1 / ref=1 / deblock=1:0:0 / analyse=0x1:0x111 / me=hex / subme=2 / psy=1 / psy_rd=1.00:0.00 / mixed_ref=0 / me_range=16 / chroma_me=1 / trellis=0 / 8x8dct=0 / cqm=0 / deadzone=21,11 / fast_pskip=1 / chroma_qp_offset=0 / threads=6 / lookahead_threads=2 / sliced_threads=0 / nr=0 / decimate=1 / interlaced=0 / bluray_compat=0 / constrained_intra=0 / bframes=3 / b_pyramid=2 / b_adapt=1 / b_bias=0 / direct=1 / weightb=1 / open_gop=0 / weightp=1 / keyint=300 / keyint_min=30 / scenecut=40 / intra_refresh=0 / rc_lookahead=10 / rc=crf / mbtree=1 / crf=15.0 / qcomp=0.60 / qpmin=0 / qpmax=69 / qpstep=4 / vbv_maxrate=20000 / vbv_bufsize=25000 / crf_max=0.0 / nal_hrd=none / filler=0 / ip_ratio=1.40 / aq=1:1.00
Encoded date : UTC 2036-02-06 06:28:16
Tagged date : UTC 2036-02-06 06:28:16
Color range : Limited
Color primaries : BT.601 NTSC
Transfer characteristics : BT.709
Matrix coefficients : BT.601
Menus : 3

Audio
ID : 2
Format : AAC
Format/Info : Advanced Audio Codec
Format profile : LC
Codec ID : 40
Duration : 1h 24mn
Bit rate mode : Variable
Bit rate : 255 Kbps
Channel(s) : 2 channels
Channel positions : Front: L R
Sampling rate : 48.0 KHz
Frame rate : 46.875 fps (1024 spf)
Compression mode : Lossy
Stream size : 153 MiB (20%)
Title : Stereo / Stereo
Language : English
Default : Yes
Alternate group : 1
Encoded date : UTC 2036-02-06 06:28:16
Tagged date : UTC 2036-02-06 06:28:16
Menus : 3

Menu
ID : 3
Codec ID : text
Duration : 1h 23mn
Language : English
Encoded date : UTC 2036-02-06 06:28:16
Tagged date : UTC 2036-02-06 06:28:16
Menu For : 1,2
00:00:00.000 : Chapter1
00:07:37.190 : Chapter2
00:15:13.112 : Chapter3
00:22:50.135 : Chapter4
00:30:27.159 : Chapter5
00:38:04.115 : Chapter6
00:45:41.105 : Chapter7
00:53:18.162 : Chapter8
01:00:54.117 : Chapter9
01:08:31.107 : Chapter10
01:16:08.197 : Chapter11
Bit rate mode : VBR

Screen Shots

image
*
*
*
*
*
*
No links available
No downloads available

Genres

Related movies

Watch Dragon ball super