Remember Me
A password will be e-mailed to you.
Please enter your username or email address. You will receive a link to create a new password via email.
Cancel
PerfectHDMovies.me

London Has Fallen 2016 BRRip x264 AAC-SSN 1.5 Gb

London Has Fallen    

R 99 min HollywoodHollywood Blu-Ray 720p

6.0
IMDB: 6.0/10 36,101 votes

, , ,

N/A

UK, USA, Bulgaria

Report error

London Has Fallen 2016 BRRip x264 AAC-SSN

London Has Fallen 2016 BRRip x264 AAC-SSN

General
Complete name                            : London Has Fallen 2016 BRRip x264 AAC-SSN.mkv
Format                                   : Matroska
Format version                           : Version 4 / Version 2
File size                                : 1.11 GiB
Duration                                 : 1h 38mn
Overall bit rate                         : 1 612 Kbps
Encoded date                             : UTC 2016-06-01 09:21:12
Writing application                      : mkvmerge v8.6.1 ('Flying') 64bit
Writing library                          : libebml v1.3.3 + libmatroska v1.4.4

Video
ID                                       : 1
Format                                   : AVC
Format/Info                              : Advanced Video Codec
Format profile                           : [email protected]
Format settings, CABAC                   : Yes
Format settings, ReFrames                : 5 frames
Codec ID                                 : V_MPEG4/ISO/AVC
Duration                                 : 1h 38mn
Bit rate                                 : 1 282 Kbps
Width                                    : 900 pixels
Height                                   : 376 pixels
Display aspect ratio                     : 2.40:1
Frame rate mode                          : Constant
Frame rate                               : 23.976 (24000/1001) fps
Color space                              : YUV
Chroma subsampling                       : 4:2:0
Bit depth                                : 8 bits
Scan type                                : Progressive
Bits/(Pixel*Frame)                       : 0.190
Stream size                              : 904 MiB (79%)
Writing library                          : x264 core 148 r2692 64f4e24
Language                                 : English
Default                                  : Yes
Forced                                   : No

Audio
ID                                       : 2
Format                                   : AAC
Format/Info                              : Advanced Audio Codec
Format profile                           : LC
Codec ID                                 : A_AAC
Duration                                 : 1h 38mn
Bit rate                                 : 330 Kbps
Channel(s)                               : 6 channels
Channel positions                        : Front: L C R, Side: L R, LFE
Sampling rate                            : 32.0 KHz
Frame rate                               : 31.250 fps (1024 spf)
Compression mode                         : Lossy
Stream size                              : 233 MiB (20%)
Language                                 : English
Default                                  : Yes
Forced                                   : No

 

London Has Fallen 2016 BRRip x264 AAC-SSN
London Has Fallen 2016 BRRip x264 AAC-SSN
London Has Fallen 2016 BRRip x264 AAC-SSN
LETWATACH
*
*
*
*
*
*
*
GO4UP
 
No links available
No downloads available

Genres

Related movies

Watch Dragon ball super