Remember Me
A password will be e-mailed to you.
Please enter your username or email address. You will receive a link to create a new password via email.
Cancel
PerfectHDMovies.me

London Has Fallen 2016 BluRay 1080p x264 Dual Audio[English-Hindi(Cleaned)]…Hon3y 3Gb

R Dual AudioDual Audio Blu-Ray 1080p

6.0
IMDB: 6.0/10 votes

, ,

USA

Report error

London Has Fallen 2016 BluRay 1080p x264 Dual Audio[English-Hindi(Cleaned)]…Hon3y 3Gb

General
Format : Matroska
Format version : Version 4 / Version 2
File size : 3.00 GiB
Duration : 1h 38mn
Overall bit rate : 4 345 Kbps

Video
Format : AVC
Format/Info : Advanced Video Codec
Format profile : [email protected]
Format settings, CABAC : Yes
Format settings, ReFrames : 5 frames
Codec ID : V_MPEG4/ISO/AVC
Duration : 1h 38mn
Bit rate : 3 675 Kbps
Width : 1 920 pixels
Height : 800 pixels
Display aspect ratio : 2.40:1
Frame rate mode : Constant
Frame rate : 23.976 (24000/1001) fps
Color space : YUV
Chroma subsampling : 4:2:0
Bit depth : 8 bits
Scan type : Progressive
Bits/(Pixel*Frame) : 0.100
Stream size : 2.53 GiB (84%)
Title : [email protected]

Hindi Audio Credits: KILLERBLAZE

Cleaned and Synched by: R3al_Star

Audio 1
Format : AAC
Format/Info : Advanced Audio Codec
Format profile : LC
Codec ID : A_AAC
Duration : 1h 38mn
Bit rate : 224 Kbps
Channel(s) : 2 channels
Channel positions : Front: L R
Sampling rate : 48.0 KHz
Frame rate : 46.875 fps (1024 spf)
Compression mode : Lossy
Delay relative to video : 9ms
Stream size : 158 MiB (5%)
Title : [email protected]
Language : Hindi
Default : Yes
Forced : Yes

Audio 2
Format : AC-3
Format/Info : Audio Coding 3
Mode extension : CM (complete main)
Format settings, Endianness : Big
Codec ID : A_AC3
Duration : 1h 38mn
Bit rate mode : Constant
Bit rate : 448 Kbps
Channel(s) : 6 channels
Channel positions : Front: L C R, Side: L R, LFE
Sampling rate : 48.0 KHz
Frame rate : 31.250 fps (1536 spf)
Compression mode : Lossy
Stream size : 316 MiB (10%)
Title : [email protected]
Language : English

Subtitle
Format : UTF-8
Codec ID : S_TEXT/UTF8
Codec ID/Info : UTF-8 Plain Text
Duration : 1h 31mn
Bit rate : 47 bps
Count of elements : 1029
Stream size : 31.9 KiB (0%)
Title : [email protected]
Language : English
Default : Yes
No links available
No downloads available

Genres

Related movies

Watch Dragon ball super