Remember Me
A password will be e-mailed to you.
Please enter your username or email address. You will receive a link to create a new password via email.
Cancel
PerfectHDMovies.me

London Has Fallen (2016) 1080p Blu-ray x264 EN-Hindi AC3 5.1 ESub -DDR 4.90 GiB

Uncategorized

IMDB: /10 votes

Report error

London Has Fallen (2016) 1080p Blu-ray x264 EN-Hindi AC3 5.1 ESub -DDR

London Has Fallen (2016) 1080p Blu-ray x264 EN-Hindi AC3 5.1 ESub -DDR

Specs:
Source: BD50 @ DDR

Format : Matroska
File size : 4.90 GiB
Duration : 1 h 38 min
Overall bit rate : 7 101 kb/s
Encoded date : UTC 2016-09-07 11:26:36
Writing application : mkvmerge v9.2.0 ('Photograph') 64bit
Writing library : libebml v1.3.3 + libmatroska v1.4.4

Video
ID : 1
Format : AVC
Format/Info : Advanced Video Codec
Format profile : [email protected]
Format settings, CABAC : Yes
Format settings, ReFrames : 5 frames
Codec ID : V_MPEG4/ISO/AVC
Duration : 1 h 38 min
Bit rate : 6 491 kb/s
Width : 1 920 pixels
Height : 800 pixels
Display aspect ratio : 2.40:1
Frame rate mode : Constant
Frame rate : 23.976 (24000/1001) FPS
Color space : YUV
Chroma subsampling : 4:2:0
Bit depth : 8 bits
Scan type : Progressive
Bits/(Pixel*Frame) : 0.176
Stream size : 4.48 GiB (91%)
Default : Yes
Forced : No
Color range : Limited
Color primaries : BT.709
Transfer characteristics : BT.709
Matrix coefficients : BT.709

Audio #1
ID : 2
Format : AC-3
Format/Info : Audio Coding 3
Mode extension : CM (complete main)
Format settings, Endianness : Big
Codec ID : A_AC3
Duration : 1 h 38 min
Bit rate mode : Constant
Bit rate : 448 kb/s
Channel(s) : 6 channels
Channel positions : Front: L C R, Side: L R, LFE
Sampling rate : 48.0 kHz
Frame rate : 31.250 FPS (1536 spf)
Compression mode : Lossy
Stream size : 316 MiB (6%)
Language : Hindi
Default : Yes
Forced : No

Audio #2
ID : 3
Format : AAC
Format/Info : Advanced Audio Codec
Format profile : LC
Codec ID : A_AAC
Duration : 1 h 38 min
Bit rate : 160 kb/s
Channel(s) : 6 channels
Channel positions : Front: L C R, Side: L R, LFE
Sampling rate : 48.0 kHz
Frame rate : 46.875 FPS (1024 spf)
Compression mode : Lossy
Delay relative to video : 9 ms
Stream size : 113 MiB (2%)
Default : No
Forced : No

Text
ID : 4
Format : UTF-8
Codec ID : S_TEXT/UTF8
Codec ID/Info : UTF-8 Plain Text
Duration : 1 h 31 min
Bit rate : 52 b/s
Count of elements : 1188
Stream size : 35.3 KiB (0%)
Language : English
Default : Yes
Forced : No

 

London Has Fallen (2016) 1080p Blu-ray x264 EN-Hindi AC3 5.1 ESub -DDR London Has Fallen (2016) 1080p Blu-ray x264 EN-Hindi AC3 5.1 ESub -DDR London Has Fallen (2016) 1080p Blu-ray x264 EN-Hindi AC3 5.1 ESub -DDR

Sample

LETWATACH
*
*
VODLOCKER
*
USERFILES
*
*
*
JHEBERG
*
GO4UP 
 
No links available
No downloads available

Genres

Related movies

Watch Dragon ball super