Remember Me
A password will be e-mailed to you.
Please enter your username or email address. You will receive a link to create a new password via email.
Cancel
PerfectHDMovies.me

Lights Out (2016) 720p BluRay x264 [Dual-Audio][English DD 5.1 + Hindi DD 5.1] – Mafiaking – M2Tv – 850.91 MB

Lights Out    

PG-13 81 min Uncategorized

6.7
IMDB: 6.7/10 23,947 votes

, , ,

N/A

USA

Report error

Lights Out (2016) 720p BluRay x264 [Dual-Audio][English DD 5.1 + Hindi DD 5.1] - Mafiaking - M2Tv

Lights Out (2016) 720p BluRay x264 [Dual-Audio][English DD 5.1 + Hindi DD 5.1] – Mafiaking – M2Tv – 850.91 MB

Genere: Horror, Thriller

General
Unique ID : 223539870969302832407319875974884885165 (0xA82C368F740CAF69BDAD96255D2E02AD)
Complete name : Lights Out (2016) 720p BluRay x264 [Dual-Audio][English DD 5.1+Hindi DD 5.1] - Mafiaking - M2Tv.mkv
Format : Matroska
Format version : Version 4 / Version 2
File size : 839 MiB
Duration : 1 h 20 min
Overall bit rate : 1 449 kb/s
Movie name : Lights Out (2016) 720p BluRay x264 [Dual-Audio][English DD 5.1+Hindi DD 5.1] - Mafiaking - M2Tv
Encoded date : UTC 2016-10-21 18:06:54
Writing application : mkvmerge v7.0.0 ('Where We Going') 32bit built on Jun 9 2014 15:08:34
Writing library : libebml v1.3.0 + libmatroska v1.4.1

Video
ID : 1
Format : AVC
Format/Info : Advanced Video Codec
Format profile : [email protected]
Format settings, CABAC : Yes
Format settings, ReFrames : 3 frames
Codec ID : V_MPEG4/ISO/AVC
Duration : 1 h 20 min
Bit rate : 1 000 kb/s
Width : 1 280 pixels
Height : 536 pixels
Display aspect ratio : 2.40:1
Frame rate mode : Constant
Frame rate : 23.976 (24000/1001) FPS
Color space : YUV
Chroma subsampling : 4:2:0
Bit depth : 8 bits
Scan type : Progressive
Bits/(Pixel*Frame) : 0.061
Stream size : 579 MiB (69%)
Title : Mafiaking
Language : English
Default : Yes
Forced : No

Audio #1
ID : 2
Format : AC-3
Format/Info : Audio Coding 3
Mode extension : CM (complete main)
Format settings, Endianness : Big
Codec ID : A_AC3
Duration : 1 h 20 min
Bit rate mode : Constant
Bit rate : 224 kb/s
Channel(s) : 6 channels
Channel positions : Front: L C R, Side: L R, LFE
Sampling rate : 48.0 kHz
Frame rate : 31.250 FPS (1536 spf)
Compression mode : Lossy
Stream size : 130 MiB (15%)
Title : Mafiaking
Language : Hindi
Default : Yes
Forced : No

Audio #2
ID : 3
Format : AC-3
Format/Info : Audio Coding 3
Mode extension : CM (complete main)
Format settings, Endianness : Big
Codec ID : A_AC3
Duration : 1 h 20 min
Bit rate mode : Constant
Bit rate : 224 kb/s
Channel(s) : 6 channels
Channel positions : Front: L C R, Side: L R, LFE
Sampling rate : 48.0 kHz
Frame rate : 31.250 FPS (1536 spf)
Compression mode : Lossy
Stream size : 130 MiB (15%)
Title : Mafiaking
Language : English
Default : No
Forced : No

ss


Lights Out (2016) 720p BluRay x264 [Dual-Audio][English DD 5.1 + Hindi DD 5.1] - Mafiaking - M2TvLights Out (2016) 720p BluRay x264 [Dual-Audio][English DD 5.1 + Hindi DD 5.1] - Mafiaking - M2TvLights Out (2016) 720p BluRay x264 [Dual-Audio][English DD 5.1 + Hindi DD 5.1] - Mafiaking - M2Tv

SAMPLE

wo

*
*
FLASHSX
*
LETWATCH
dl
 
No links available
No downloads available

Genres

Related movies

Watch Dragon ball super