Remember Me
A password will be e-mailed to you.
Please enter your username or email address. You will receive a link to create a new password via email.
Cancel
PerfectHDMovies.me

Lights.Out.(2016).720p.Bluray.x.264.AC3.Dual.Audio.[Hindi.5.1.+.English.5.1].Org 1.07 GiB

Lights Out    

PG-13 81 min Dual AudioDual Audio Blu-Ray 720p

6.7
IMDB: 6.7/10 23,947 votes

, , ,

N/A

USA

Report error

Lights.Out.(2016).720p.Bluray.x.264.AC3.Dual.Audio.[Hindi.5.1.+.English.5.1].Org

Lights.Out.(2016).720p.Bluray.x.264.AC3.Dual.Audio.[Hindi.5.1.+.English.5.1].Org

General 
Unique ID : 200505936659186909266838180324112088753 (0x96D809EB1F58CB83B23F6BF7FA743EB1) 
Complete name : Lights Out (2016) 720p Bluary x 264 [Hindi 5.0 + English 5.1].mkv 
Format : Matroska 
Format version : Version 4 / Version 2 
File size : 1.07 GiB 
Duration : 1 h 20 min 
Overall bit rate : 1 885 kb/s 
Encoded date : UTC 2016-10-20 03:14:07 / UTC 2016-10-16T23:53:45Z 
Writing application : mkvmerge v9.2.0 ('Photograph') 32bit 
Writing library : libebml v1.3.3 + libmatroska v1.4.4 / Lavf55.12.0 

Video 
ID : 1 
Format : AVC 
Format/Info : Advanced Video Codec 
Format profile : [email protected] 
Format settings, CABAC : Yes 
Format settings, ReFrames : 12 frames 
Codec ID : V_MPEG4/ISO/AVC 
Duration : 1 h 20 min 
Bit rate : 1 500 kb/s 
Width : 1 280 pixels 
Height : 534 pixels 
Display aspect ratio : 2.40:1 
Frame rate mode : Constant 
Frame rate : 23.976 (24000/1001) FPS 
Color space : YUV 
Chroma subsampling : 4:2:0 
Bit depth : 8 bits 
Scan type : Progressive 
Bits/(Pixel*Frame) : 0.092 
Stream size : 847 MiB (78%) 
Writing library : x264 core 142 r2479 dd79a61 
Default : Yes 
Forced : No 
Color range : Limited 
Color primaries : BT.709 
Transfer characteristics : BT.709 
Matrix coefficients : BT.709 
Statistics Tags Issue : mkvmerge v9.2.0 ('Photograph') 32bit 2016-10-20 03:14:07 / mkvmerge v9.2.0 ('Photograph') 32bit 2016-10-20 03:14:07 / UTC 2016-10-16T23:53:45Z 
FromStats_BitRate : 1499221 
FromStats_Duration : 01:20:57.061000000 
FromStats_FrameCount : 116453 
FromStats_StreamSize : 910226065 

Audio #1 
ID : 2 
Format : AC-3 
Format/Info : Audio Coding 3 
Mode extension : CM (complete main) 
Format settings, Endianness : Big 
Codec ID : A_AC3 
Duration : 1 h 20 min 
Bit rate mode : Constant 
Bit rate : 224 kb/s 
Channel(s) : 6 channels 
Channel positions : Front: L C R, Side: L R, LFE 
Sampling rate : 48.0 kHz 
Frame rate : 31.250 FPS (1536 spf) 
Compression mode : Lossy 
Delay relative to video : -5 ms 
Stream size : 130 MiB (12%) 
Title : Surround 
Language : English 
Default : Yes 
Forced : No 
Statistics Tags Issue : mkvmerge v9.2.0 ('Photograph') 32bit 2016-10-20 03:14:07 / mkvmerge v9.2.0 ('Photograph') 32bit 2016-10-20 03:14:07 / UTC 2016-10-16T23:53:45Z 
FromStats_BitRate : 224000 
FromStats_Duration : 01:20:57.152000000 
FromStats_FrameCount : 151786 
FromStats_StreamSize : 136000256 

Audio #2 
ID : 3 
Format : AC-3 
Format/Info : Audio Coding 3 
Mode extension : CM (complete main) 
Format settings, Endianness : Big 
Codec ID : A_AC3 
Duration : 1 h 20 min 
Bit rate mode : Constant 
Bit rate : 160 kb/s 
Channel(s) : 6 channels 
Channel positions : Front: L C R, Side: L R, LFE 
Sampling rate : 48.0 kHz 
Frame rate : 31.250 FPS (1536 spf) 
Compression mode : Lossy 
Delay relative to video : -83 ms 
Stream size : 92.6 MiB (8%) 
Default : No 
Forced : No 
Statistics Tags Issue : mkvmerge v9.2.0 ('Photograph') 32bit 2016-10-20 03:14:07 / mkvmerge v9.2.0 ('Photograph') 32bit 2016-10-20 03:14:07 / UTC 2016-10-16T23:53:45Z 
FromStats_BitRate : 160000 
FromStats_Duration : 01:20:57.184000000 
FromStats_FrameCount : 151787 
FromStats_StreamSize : 97143680 

Menu 
00:00:00.000 : :00:00:00.000 
00:10:01.684 : :00:10:01.559 
00:21:07.474 : :00:21:07.349 
00:30:13.061 : :00:30:12.936 
00:40:57.788 : :00:40:57.664 
00:50:38.410 : :00:50:38.285 
00:58:43.728 : :00:58:43.603 
01:09:54.315 : :01:09:54.190 
01:16:21.410 : :01:16:21.285

ss

Lights.Out.(2016).720p.Bluray.x.264.AC3.Dual.Audio.[Hindi.5.1.+.English.5.1].OrgLights.Out.(2016).720p.Bluray.x.264.AC3.Dual.Audio.[Hindi.5.1.+.English.5.1].OrgLights.Out.(2016).720p.Bluray.x.264.AC3.Dual.Audio.[Hindi.5.1.+.English.5.1].Org

wo

*
*
FLASHSX
*
LETWATCH
dl
No links available
No downloads available

Genres

Related movies

Watch Dragon ball super