Remember Me
A password will be e-mailed to you.
Please enter your username or email address. You will receive a link to create a new password via email.
Cancel
PerfectHDMovies.me

Kyaa Kool Hain Hum 3 (2016) – 720p – DVD-Rip – Hindi – x264 – AC3 – 5.1 – Esubs – [PKG] ~ 1.05 GB

Kyaa Kool Hain Hum 3    

N/A 124 min BollywoodBollywood DVDRip 720p

1.8
IMDB: 1.8/10 2,505 votes

N/A

India

Report error

 Kyaa Kool Hain Hum 3 (2016) - 720p - DVD-Rip - Hindi - x264 - AC3 - 5.1 - Esubs - [PKG]  - PerfectHDMovies
  General
Unique ID : 181457316166730856326659233559502465489 (0x8883686B0B50D7678A8BF542148129D1)
Complete name : E:\encode\Kyaa Kool Hain Hum 3 (2016) - 720p - DVD-Rip - Hindi - x264 - AC3 - 5.1 - Esubs - [PKG]\Kyaa Kool Hain Hum 3 (2016) - 720p - DVD-Rip - Hindi - x264 - AC3 - 5.1 - Esubs - [PKG].mkv
Format : Matroska
Format version : Version 4 / Version 2
File size : 1.05 GiB
Duration : 2h 0mn
Overall bit rate : 1 250 Kbps
Movie name : Kyaa Kool Hain Hum 3 (2016) - 720p - DVD-Rip - Hindi - x264 - AC3 - 5.1 - Esubs - [PKG]
Encoded date : UTC 2016-03-28 08:57:40
Writing application : mkvmerge v8.9.0 ('Father Daughter') 64bit
Writing library : libebml v1.3.3 + libmatroska v1.4.4
DURATION : 01:55:27.623000000
NUMBER_OF_FRAMES : 2115
NUMBER_OF_BYTES : 60443

Video
ID : 1
Format : AVC
Format/Info : Advanced Video Codec
Format profile : [email protected]
Format settings, CABAC : Yes
Format settings, ReFrames : 12 frames
Codec ID : V_MPEG4/ISO/AVC
Duration : 2h 0mn
Bit rate : 999 Kbps
Width : 1 280 pixels
Height : 544 pixels
Display aspect ratio : 2.35:1
Frame rate mode : Constant
Frame rate : 23.976 fps
Color space : YUV
Chroma subsampling : 4:2:0
Bit depth : 8 bits
Scan type : Progressive
Bits/(Pixel*Frame) : 0.060
Stream size : 860 MiB (80%)
Title : [PKG]
Writing library : x264 core 146 r2538 121396c
Default : Yes
Forced : No
Color primaries : Generic film
Transfer characteristics : BT.709
Matrix coefficients : BT.709
Color range : Limited

Audio
ID : 2
Format : AC-3
Format/Info : Audio Coding 3
Mode extension : CM (complete main)
Format settings, Endianness : Big
Codec ID : A_AC3
Duration : 2h 0mn
Bit rate mode : Constant
Bit rate : 224 Kbps
Channel(s) : 6 channels
Channel positions : Front: L C R, Side: L R, LFE
Sampling rate : 48.0 KHz
Bit depth : 16 bits
Compression mode : Lossy
Stream size : 193 MiB (18%)
Title : [PKG]
Language : Hindi
Default : Yes
Forced : Yes

Text
ID : 3
Format : UTF-8
Codec ID : S_TEXT/UTF8
Codec ID/Info : UTF-8 Plain Text
Title : [PKG]
Language : English
Default : Yes
Forced : No
vlcsnap-2016-03-28-15h10m44s6.png
vlcsnap-2016-03-28-15h11m09s241.png
vlcsnap-2016-03-28-15h11m25s153.png
vlcsnap-2016-03-28-15h12m06s48.png
vlcsnap-2016-03-28-15h13m41s223.png
vlcsnap-2016-03-28-15h13m48s48.png
vlcsnap-2016-03-28-15h10m02s87.png
KyaaKoolHainHum32016-720p-DVD-Rip-Hindi-x264-AC3-5.1-Esubs-PKG.mkv_thumbs_2016.03.28_15.09.33.jpg

*
*
*
*
*
 

 

No links available
No downloads available

Genres

Related movies

Watch Dragon ball super