Remember Me
A password will be e-mailed to you.
Please enter your username or email address. You will receive a link to create a new password via email.
Cancel
PerfectHDMovies.me

Kya Kool Hai Hum 3 (2016) – 1CD – DesiSCR-Rip – Hindi – x264 – MP3 – Mafiaking – M2Tv~723 MB

BollywoodBollywood Pre-Releases (Latest)

IMDB: /10 votes

Report error

 

 
Video
ID : 1
Format : AVC
Format/Info : Advanced Video Codec
Format profile : [email protected]
Format settings, CABAC : Yes
Format settings, ReFrames : 4 frames
Codec ID : V_MPEG4/ISO/AVC
Duration : 2h 3mn
Bit rate : 716 Kbps
Width : 640 pixels
Height : 272 pixels
Display aspect ratio : 2.35:1
Frame rate mode : Constant
Frame rate : 25.000 fps
Color space : YUV
Chroma subsampling : 4:2:0
Bit depth : 8 bits
Scan type : Progressive
Bits/(Pixel*Frame) : 0.165
Stream size : 621 MiB (88%)
Title : Mafiaking
Language : Hindi
Default : Yes
Forced : No


Audio
ID : 2
Format : MPEG Audio
Format version : Version 1
Format profile : Layer 3
Mode : Joint stereo
Mode extension : MS Stereo
Codec ID : A_MPEG/L3
Codec ID/Hint : MP3
Duration : 2h 3mn
Bit rate mode : Constant
Bit rate : 80.0 Kbps
Channel(s) : 2 channels
Sampling rate : 32.0 KHz
Compression mode : Lossy
Stream size : 70.8 MiB (10%)
Title : Mafiaking
Writing library : LAME3.99r
Language : Hindi
Default : Yes
Forced : No
1c36d9.png

2da17f.png

3fccc0.png

4eee0c.png

54c212.png

6bfb4a.png

7182da.png

8fb2f3.png

9fe96e.png

10fae7f.png

116de78.png

12b0846.png

1352b21.png

14633b6.png

15.png

Sample

 

No links available
No downloads available

Genres

Related movies

Watch Dragon ball super