Remember Me
A password will be e-mailed to you.
Please enter your username or email address. You will receive a link to create a new password via email.
Cancel
PerfectHDMovies.me

Kutty Aka Daringbaaz Aashiq (2010) – 720p – WebHD-Rip – Dubbed Hindi – AC3 – 2.0 – ESub – Mafiaking – M2Tv 958Mb

South DubbedSouth Dubbed WEB-DL 720p

N/A
IMDB: N/A/10 votes

, ,

India

Report error

Kutty Aka Daringbaaz Aashiq (2016) - 720p - WebHD-Rip - Dubbed Hindi - AC3 - 2.0 - ESub - Mafiaking - M2Tv

Kutty Aka Daringbaaz Aashiq (2010) – 720p – WebHD-Rip – Dubbed Hindi – AC3 – 2.0 – ESub – Mafiaking – M2Tv 958Mb

Ratings: 4.8/10

Genere: Romance

General
Unique ID : 209508235798745866291738254028177202086 (0x9D9DD188B1FEC45B8B725B08686CDBA6)
Complete name : Kutty Aka Daringbaaz Aashiq (2016) - 720p - WebHD-Rip - Dubbed Hindi - AC3 - 2.0 - ESub - Mafiaking - M2Tv.mkv
Format : Matroska
Format version : Version 4 / Version 2
File size : 958 MiB
Duration : 2h 8mn
Overall bit rate : 1 040 Kbps
Movie name : Kutty Aka Daringbaaz Aashiq (2016) - 720p - WebHD-Rip - Dubbed Hindi - AC3 - 2.0 - ESub - Mafiaking - M2Tv
Encoded date : UTC 2016-06-23 17:42:29
Writing application : mkvmerge v8.3.0 ('Over the Horizon') 64bit
Writing library : libebml v1.3.1 + libmatroska v1.4.2

Video
ID : 1
Format : AVC
Format/Info : Advanced Video Codec
Format profile : [email protected]
Format settings, CABAC : Yes
Format settings, ReFrames : 3 frames
Codec ID : V_MPEG4/ISO/AVC
Duration : 2h 8mn
Bit rate : 911 Kbps
Width : 1 280 pixels
Height : 544 pixels
Display aspect ratio : 2.35:1
Frame rate mode : Constant
Frame rate : 25.000 fps
Color space : YUV
Chroma subsampling : 4:2:0
Bit depth : 8 bits
Scan type : Progressive
Bits/(Pixel*Frame) : 0.052
Stream size : 821 MiB (86%)
Title : Mafiaking
Language : Hindi
Default : Yes
Forced : No

Audio
ID : 2
Format : AC-3
Format/Info : Audio Coding 3
Mode extension : CM (complete main)
Format settings, Endianness : Big
Codec ID : A_AC3
Duration : 2h 8mn
Bit rate mode : Constant
Bit rate : 128 Kbps
Channel(s) : 2 channels
Channel positions : Front: L R
Sampling rate : 44.1 KHz
Compression mode : Lossy
Stream size : 118 MiB (12%)
Title : Mafiaking
Language : Hindi
Default : Yes
Forced : No
No links available
No downloads available

Genres

Related movies

Watch Dragon ball super