Remember Me
A password will be e-mailed to you.
Please enter your username or email address. You will receive a link to create a new password via email.
Cancel
PerfectHDMovies.me

Kunwara.Baap(1974).2CD.MKV.AC3(5.1){Kamdev} 1.34 GiB

Kunwara Baap    

N/A 137 min BollywoodBollywood DVDRip 720p

7.1
IMDB: 7.1/10 214 votes

, , ,

N/A

India

Report error

 General
 
 Source : DVD9
 
 Complete name : Kunwara Baap.mkv
 Format : Matroska
 Format version : Version 4 / Version 2
 Codec ID : isom (isom/iso2/avc1/mp41)
 File size : 1.34 GiB
 Duration : 2h 11mn
 Overall bit rate : 1 458 Kbps
 Movie name : Kunwara Baap
 Director : Mehmood Ali
 Actor : Mehmood / Bharathi Vishnuvardhan / Bhushan Tiwari / Amitabh Bachchan / Dharmendra
 Producer : Ripped By : Kamdev
 Genre : Drama
 ContentType : Short Film
 Recorded date : 1974-08-12
 Writing application : Lavf55.12.100
 HDVideo : Yes
 ContentRating : mpaa|G|100|
 
 Video
 
 ID : 1
 Format : AVC
 Format/Info : Advanced Video Codec
 Format profile : [email protected]
 Format settings, CABAC : Yes
 Format settings, ReFrames : 16 frames
 Codec ID : avc1
 Codec ID/Info : Advanced Video Coding
 Duration : 2h 11mn
 Source duration : 2h 11mn
 Bit rate : 1 068 Kbps
 Width : 708 pixels
 Height : 480 pixels
 Display aspect ratio : 4:3
 Frame rate mode : Variable
 Frame rate : 26.344 fps
 Minimum frame rate : 14.983 fps
 Maximum frame rate : 29.970 fps
 Color space : YUV
 Chroma subsampling : 4:2:0
 Bit depth : 8 bits
 Scan type : Progressive
 Bits/(Pixel*Frame) : 0.119
 Stream size : 1 006 MiB (73%)
 Source stream size : 1 006 MiB (73%)
 Writing library : x264 core 142 r2479 dd79a61
 Color range : Limited
 Color primaries : BT.601 NTSC
 Transfer characteristics : BT.709
 Matrix coefficients : BT.601
 
 Audio
 
 ID : 2
 Format : AC-3
 Format/Info : Audio Coding 3
 Mode extension : CM (complete main)
 Format settings, Endianness : Big
 Codec ID : ac-3
 Duration : 2h 11mn
 Bit rate mode : Constant
 Bit rate : 384 Kbps
 Channel(s) : 6 channels
 Channel positions : Front: L C R, Side: L R, LFE
 Sampling rate : 48.0 KHz
 Frame rate : 31.250 fps (1536 spf)
 Bit depth : 16 bits
 Compression mode : Lossy
 Stream size : 362 MiB (26%)
 Title : Surround
 Language : Hindi
 Default : Yes
 Alternate group : 1
LETWATACH
*
*
*
*
*
JHEBERG
*
No links available
No downloads available

Genres

Related movies

Watch Dragon ball super