Remember Me
A password will be e-mailed to you.
Please enter your username or email address. You will receive a link to create a new password via email.
Cancel
PerfectHDMovies.me

Kung fu Panda 3 (2016) 1080p [Dual Audio][ENG(5.1)-HINDI(5.1)]~{PHDR}~ 3.6Gb

Kung Fu Panda 3    

PG 95 min Dual AudioDual Audio Blu-Ray 1080p

7.3
IMDB: 7.3/10 48,589 votes

,

, , ,

2 nominations.

USA, China

Report error

Kung fu Panda 3 (2016) 1080p [Dual Audio][ENG(5.1)-HINDI(5.1)]~{PHDR}~

Kung fu Panda 3 (2016) 1080p [Dual Audio][ENG(5.1)-HINDI(5.1)]~{PHDR}~ 3.6Gb

Never Underestimate Power of a Dramatic Entrance…!!!

Storyline :
Continuing his "legendary adventures of awesomeness", Po must face two hugely epic, but different threats: one supernatural and the other a little closer to his home.

General

Complete name : Kung fu Panda 3 (2016) 1080p[Dual Audio][ENG(5.1)-HINDI(5.1)]~

{PHDR}~
Format : Matroska
File size : 3.62 GiB
Duration : 1h 34mn
Overall bit rate : 5 454 Kbps
Movie name : Kung fu Panda 3 (2016) 1080p[Dual Audio][ENG(5.1)-HINDI(5.1)]~

{PHDR}~

Video
ID : 1
Format : AVC
Format/Info : Advanced Video Codec
Format profile : [email protected]
Format settings, CABAC : Yes
Format settings, ReFrames : 5 frames
Codec ID : V_MPEG4/ISO/AVC
Duration : 1h 34mn
Bit rate : 4 350 Kbps
Width : 1 920 pixels
Height : 816 pixels
Display aspect ratio : 2.35:1
Frame rate mode : Constant
Frame rate : 23.976 (24000/1001) fps
Color space : YUV
Chroma subsampling : 4:2:0
Bit depth : 8 bits
Scan type : Progressive
Bits/(Pixel*Frame) : 0.116
Stream size : 2.88 GiB (80%)
Language : English
Default : Yes
Forced : No

Audio #1
ID : 2
Format : AC-3
Format/Info : Audio Coding 3
Mode extension : CM (complete main)
Format settings, Endianness : Big
Codec ID : A_AC3
Duration : 1h 34mn
Bit rate mode : Constant
Bit rate : 448 Kbps
Channel(s) : 6 channels
Channel positions : Front: L C R, Side: L R, LFE
Sampling rate : 48.0 KHz
Frame rate : 31.250 fps (1536 spf)
Compression mode : Lossy
Stream size : 304 MiB (8%)
Title : Bluray ~{PHDR}~
Language : Hindi
Default : Yes
Forced : No

Audio #2
ID : 3
Format : AC-3
Format/Info : Audio Coding 3
Mode extension : CM (complete main)
Format settings, Endianness : Big
Codec ID : A_AC3
Duration : 1h 34mn
Bit rate mode : Constant
Bit rate : 640 Kbps
Channel(s) : 6 channels
Channel positions : Front: L C R, Side: L R, LFE
Sampling rate : 48.0 KHz
Frame rate : 31.250 fps (1536 spf)
Compression mode : Lossy
Stream size : 434 MiB (12%)
Title : Bluray ~{PHDR}~
Language : English
Default : No
Forced : No

Text
ID : 4
Format : PGS
Muxing mode : zlib
Codec ID : S_HDMV/PGS
Codec ID/Info : Picture based subtitle format used on BDs/HD-DVDs
Duration : 1h 29mn
Bit rate : 14.7 Kbps
Count of elements : 3554
Stream size : 9.43 MiB (0%)
Title : PSDH
Language : English
Default : Yes
Forced : No

HINDI AUDIO SOURCE ( PyZ - Thanks )
ENjOY THe PERFECTION, FOR THOSE WHO LIKE PERFECTION.
No links available
No downloads available

Genres

Related movies

Watch Dragon ball super