Remember Me
A password will be e-mailed to you.
Please enter your username or email address. You will receive a link to create a new password via email.
Cancel
PerfectHDMovies.me

Kingsman The Secret Service (2014) 720p BluRay UnCut x264 [Dual-Audio][English 5.1+Hindi 2.0] – Mafiaking – M2Tv

NO    

NO NO Uncategorized

7.8
IMDB: 7.8/10 NO votes

NO

Report error

Kingsman The Secret Service (2014) 720p BluRay UnCut x264 [Dual-Audio][English 5.1+Hindi 2.0] - Mafiaking - M2Tv @ PerfectHDMovies

Kingsman The Secret Service (2014) 720p BluRay UnCut x264 [Dual-Audio][English 5.1+Hindi 2.0] – Mafiaking – M2Tv

http://www.imdb.com/title/tt2802144/
Ratings: 7.8/10
GENRE: Action, Adventure, Comedy

General
Format : Matroska
Format version : Version 4 / Version 2
File size : 1.18 GiB
Duration : 2h 9mn
Overall bit rate : 1 306 Kbps

Video
ID : 1
Format : AVC
Format/Info : Advanced Video Codec
Format profile : [email protected]
Format settings, CABAC : Yes
Format settings, ReFrames : 4 frames
Codec ID : V_MPEG4/ISO/AVC
Duration : 2h 9mn
Bit rate : 925 Kbps
Width : 1 280 pixels
Height : 536 pixels
Display aspect ratio : 2.40:1
Frame rate mode : Constant
Frame rate : 23.976 fps
Color space : YUV
Chroma subsampling : 4:2:0
Bit depth : 8 bits
Scan type : Progressive
Bits/(Pixel*Frame) : 0.056
Stream size : 828 MiB (69%)
Title : Mafiaking
Language : English
Default : Yes
Forced : No

Audio #1
ID : 2
Format : AC-3
Format/Info : Audio Coding 3
Mode extension : CM (complete main)
Format settings, Endianness : Big
Codec ID : A_AC3
Duration : 2h 9mn
Bit rate mode : Constant
Bit rate : 160 Kbps
Channel(s) : 2 channels
Channel positions : Front: L R
Sampling rate : 48.0 KHz
Compression mode : Lossy
Delay relative to video : 24ms
Stream size : 148 MiB (12%)
Title : Mafiaking
Language : Hindi
Default : Yes
Forced : No

Audio #2
ID : 3
Format : AC-3
Format/Info : Audio Coding 3
Mode extension : CM (complete main)
Format settings, Endianness : Big
Codec ID : A_AC3
Duration : 2h 9mn
Bit rate mode : Constant
Bit rate : 224 Kbps
Channel(s) : 6 channels
Channel positions : Front: L C R, Side: L R, LFE
Sampling rate : 48.0 KHz
Compression mode : Lossy
Stream size : 207 MiB (17%)
Title : Mafiaking
Language : English
Default : No
Forced : No

 

 12517c.png
2fdb29.png
44d5a0.png
6c0617.png
*
USERSFILES
*
*
*
*
 

 

No links available
No downloads available

Genres

Related movies

Watch Dragon ball super