Remember Me
A password will be e-mailed to you.
Please enter your username or email address. You will receive a link to create a new password via email.
Cancel
PerfectHDMovies.me

Kingdom.Of.Heaven.2005.BDrip.x264.Hindi.Audio.Only – Lesnar 439 MiB

Kingdom of Heaven    

R 144 min Dual AudioDual Audio Blu-Ray 720p

7.2
IMDB: 7.2/10 218,445 votes

, , ,

5 wins & 13 nominations.

USA, UK, Spain, Germany, Morocco

Report error

Kingdom.Of.Heaven.2005.BDrip.x264.Hindi.Audio.Only - Lesnar

Kingdom.Of.Heaven.2005.BDrip.x264.Hindi.Audio.Only – Lesnar

Unique ID : 223975654531796246710671993842201265384 (0xA88024594D80873C80DB60E850C004E8)
Complete name : E:\m,\Kingdom Of Heaven (2005) BDrip x264 Hindi Audio Only - Lesnar.mkv
Format : Matroska
Format version : Version 4 / Version 2
File size : 439 MiB
Duration : 2 h 24 min
Overall bit rate : 425 kb/s
Encoded date : UTC 2016-10-11 16:34:57
Writing application : mkvmerge v9.4.2 ('So High') 32bit
Writing library : libebml v1.3.4 + libmatroska v1.4.5

Video
ID : 1
Format : AVC
Format/Info : Advanced Video Codec
Format profile : [email protected]
Format settings, CABAC : Yes
Format settings, ReFrames : 4 frames
Codec ID : V_MPEG4/ISO/AVC
Duration : 2 h 24 min
Bit rate : 345 kb/s
Width : 720 pixels
Height : 304 pixels
Display aspect ratio : 2.35:1
Frame rate mode : Constant
Frame rate : 23.976 (24000/1001) FPS
Color space : YUV
Chroma subsampling : 4:2:0
Bit depth : 8 bits
Scan type : Progressive
Bits/(Pixel*Frame) : 0.066
Stream size : 356 MiB (81%)
Title : Lesnar
Writing library : x264 core 138
Encoding settings : cabac=1 / ref=2 / deblock=1:0:0 / analyse=0x3:0x113 / me=hex / subme=4 / psy=1 / psy_rd=1.00:0.00 / mixed_ref=0 / me_range=16 / chroma_me=1 / trellis=1 / 8x8dct=1 / cqm=0 / deadzone=21,11 / fast_pskip=1 / chroma_qp_offset=0 / threads=18 / lookahead_threads=2 / sliced_threads=0 / nr=0 / decimate=1 / interlaced=0 / bluray_compat=0 / constrained_intra=0 / bframes=3 / b_pyramid=2 / b_adapt=1 / b_bias=0 / direct=1 / weightb=1 / open_gop=0 / weightp=1 / keyint=250 / keyint_min=23 / scenecut=40 / intra_refresh=0 / rc_lookahead=20 / rc=crf / mbtree=1 / crf=26.0 / qcomp=0.60 / qpmin=0 / qpmax=69 / qpstep=4 / vbv_maxrate=1200 / vbv_bufsize=4000 / crf_max=0.0 / nal_hrd=none / ip_ratio=1.40 / aq=1:1.00
Default : Yes
Forced : No

Audio
ID : 2
Format : AAC
Format/Info : Advanced Audio Codec
Format profile : LC
Codec ID : A_AAC
Duration : 2 h 24 min
Bit rate : 78.2 kb/s
Channel(s) : 2 channels
Channel positions : Front: L R
Sampling rate : 44.1 kHz
Frame rate : 43.066 FPS (1024 spf)
Compression mode : Lossy
Delay relative to video : -46 ms
Stream size : 80.9 MiB (18%)
Title : Lesnar
Language : Hindi
Default : Yes

ss
Kingdom.Of.Heaven.2005.BDrip.x264.Hindi.Audio.Only - Lesnar Kingdom.Of.Heaven.2005.BDrip.x264.Hindi.Audio.Only - Lesnar Kingdom.Of.Heaven.2005.BDrip.x264.Hindi.Audio.Only - Lesnar Kingdom.Of.Heaven.2005.BDrip.x264.Hindi.Audio.Only - Lesnar

wo

*
*
FLASHSX
*
LETWATCH
dl
 
No links available
No downloads available

Genres

Related movies

Watch Dragon ball super