Remember Me
A password will be e-mailed to you.
Please enter your username or email address. You will receive a link to create a new password via email.
Cancel
PerfectHDMovies.me

Ki And Ka (2016) – Desi PDVD

Ki and Ka    

N/A N/A BollywoodBollywood Pre-Releases (Latest)

N/A
IMDB: N/A/10 N/A votes

, , ,

N/A

India

Report error

General

Format                      : Flash Video
File size                   : 626 MiB
Duration                    : 1h 59mn
Overall bit rate            : 734 Kbps

Video
Format                      : AVC
Format/Info                 : Advanced Video Codec
Format profile              : [email protected]
Format settings, CABAC      : Yes
Format settings, ReFrames   : 4 frames
Codec ID                    : 7
Duration                    : 1h 59mn
Bit rate                    : 544 Kbps
Width                       : 900 pixels
Height                      : 600 pixels
Display aspect ratio        : 16:9
Frame rate mode             : Constant
Frame rate                  : 25.000 fps
Color space                 : YUV
Chroma subsampling          : 4:2:0
Bit depth                   : 8 bits
Scan type                   : Progressive
Bits/(Pixel*Frame)          : 0.040
Stream size                 : 477 MiB (76%)
Writing library             : x264 core 138

Audio
Format                      : AAC
Format/Info                 : Advanced Audio Codec
Format profile              : LC
Codec ID                    : 10
Duration                    : 1h 59mn
Bit rate                    : 165 Kbps
Channel(s)                  : 2 channels
Channel positions           : Front: L R
Sampling rate               : 44.1 KHz
Frame rate                  : 43.066 fps (1024 spf)
Compression mode            : Lossy
Stream size                 : 147 MiB (23%)
No links available
No downloads available

Genres

Related movies

Watch Dragon ball super