Remember Me
A password will be e-mailed to you.
Please enter your username or email address. You will receive a link to create a new password via email.
Cancel
PerfectHDMovies.me

Karan Arjun (1995) 720p DvDrip x264 DUAL Audio MSubs [DDR]

BollywoodBollywood DVDRip 720p

6.9
IMDB: 6.9/10 votes

Report error


Specs:
Note: This REM source DVD9 had only German audio and german subtitle (for songs).
I have synced Hindi Audio from Indian DVD which has only 192 Kbps AC3.
Source has scratches and dirts that I have tried to reduce to maximum.

Source: REM DVD9 @ DDR
Format : Matroska
File size : 3.98 GiB
Duration : 2h 48mn
Overall bit rate : 3 390 Kbps

Video
Format : AVC
Format profile : [email protected]
Width : 1 280 pixels
Height : 544 pixels
Display aspect ratio : 2.35:1
Frame rate mode : Constant
Frame rate : 25.000 fps

Audio-1
Format : AC-3
Bit rate mode : Constant
Bit rate : 192 Kbps
Channel(s) : 2 channels
Channel positions : Front: L R
Sampling rate : 48.0 KHz
Bit depth : 16 bits
Stream size : 231 MiB (6%)
Language : Hindi

Audio-2
Format : AC-3
Bit rate mode : Constant
Bit rate : 192 Kbps
Channel(s) : 2 channels
Channel positions : Front: L R
Sampling rate : 48.0 KHz
Bit depth : 16 bits
Stream size : 231 MiB (6%)
Language : German

Chapters : YES

 

No links available
No downloads available

Genres

Related movies

Watch Dragon ball super