Remember Me
A password will be e-mailed to you.
Please enter your username or email address. You will receive a link to create a new password via email.
Cancel
PerfectHDMovies.me

Kapoor & Sons (2016) – 720p – UpScaled – DVD-Rip – Hindi – x264 – AC3 – DD 5.1 – ESubs – Mafiaking – M2Tv [1.1 GB]

Kapoor and Sons    

N/A 132 min BollywoodBollywood DVDRip 720p

8.1
IMDB: 8.1/10 3,789 votes

, , ,

N/A

India

Report error

Kapoor & Sons (2016) - 720p - UpScaled - DVD-Rip - Hindi - x264 - AC3 - DD 5.1 - ESubs - Mafiaking - M2Tv [1.1 GB] - PerfectHDMovies

General
Unique ID : 175213631999251614189337799221125918364 (0x83D0EB05892DB8A5A37E082090312E9C)
Complete name : Kapoor & Sons (2016) - 720p - UpScaled - DVD-Rip - Hindi - x264 - AC3 - DD 5.1 - ESubs - Mafiaking - M2Tv.mkv
Format : Matroska
Format version : Version 4 / Version 2
File size : 1.08 GiB
Duration : 2h 17mn
Overall bit rate : 1 126 Kbps
Movie name : Kapoor & Sons (2016) - 720p - UpScaled - DVD-Rip - Hindi - x264 - AC3 - DD 5.1 - ESubs - Mafiaking - M2Tv
Encoded date : UTC 2016-05-04 19:16:59
Writing application : mkvmerge v7.9.0 ('Birds') 64bit
Writing library : libebml v1.3.1 + libmatroska v1.4.2

Video
ID : 1
Format : AVC
Format/Info : Advanced Video Codec
Format profile : [email protected]
Format settings, CABAC : Yes
Format settings, ReFrames : 4 frames
Codec ID : V_MPEG4/ISO/AVC
Duration : 2h 17mn
Bit rate : 900 Kbps
Width : 1 280 pixels
Height : 544 pixels
Display aspect ratio : 2.35:1
Frame rate mode : Constant
Frame rate : 29.970 fps
Color space : YUV
Chroma subsampling : 4:2:0
Bit depth : 8 bits
Scan type : Progressive
Bits/(Pixel*Frame) : 0.043
Stream size : 866 MiB (78%)
Title : Mafiaking
Language : Hindi
Default : Yes
Forced : No

Audio
ID : 2
Format : AC-3
Format/Info : Audio Coding 3
Mode extension : CM (complete main)
Format settings, Endianness : Big
Codec ID : A_AC3
Duration : 2h 17mn
Bit rate mode : Constant
Bit rate : 224 Kbps
Channel(s) : 6 channels
Channel positions : Front: L C R, Side: L R, LFE
Sampling rate : 48.0 KHz
Compression mode : Lossy
Stream size : 221 MiB (20%)
Title : Mafiaking
Language : Hindi
Default : Yes
Forced : No

Text
ID : 3
Format : UTF-8
Codec ID : S_TEXT/UTF8
Codec ID/Info : UTF-8 Plain Text
Title : Mafiaking
Language : English
Default : Yes
Forced : No
LETWATACH
*
USERSCLOUD
*
*
*
*
*
No links available
No downloads available

Genres

Related movies

Watch Dragon ball super