Remember Me
A password will be e-mailed to you.
Please enter your username or email address. You will receive a link to create a new password via email.
Cancel
PerfectHDMovies.me

Just Go With It (2011) 720p Blu-Ray x264 [Dual-Audio] [English DD 5.1 + Hindi] – Mafiaking – M2Tv

NO    

NO NO Dual AudioDual Audio Blu-Ray 720p

6.4
IMDB: 6.4/10 NO votes

NO

Report error

Just Go With It (2011) 720p Blu-Ray x264 [Dual-Audio] [English DD 5.1 + Hindi] - Mafiaking - M2Tv

Just Go With It (2011) 720p Blu-Ray x264 [Dual-Audio] [English DD 5.1 + Hindi] – Mafiaking – M2Tv

http://www.imdb.com/title/tt1564367/
Ratings: 6.4/10
GENRE: Comedy, Romance
General
Format : Matroska
Format version : Version 4 / Version 2
File size : 1.02 GiB
Duration : 1h 56mn
Overall bit rate : 1 253 Kbps

Video
ID : 1
Format : AVC
Format/Info : Advanced Video Codec
Format profile : [email protected]
Format settings, CABAC : Yes
Format settings, ReFrames : 4 frames
Codec ID : V_MPEG4/ISO/AVC
Duration : 1h 56mn
Bit rate : 900 Kbps
Width : 1 280 pixels
Height : 688 pixels
Display aspect ratio : 1.85:1
Frame rate mode : Constant
Frame rate : 23.976 fps
Color space : YUV
Chroma subsampling : 4:2:0
Bit depth : 8 bits
Scan type : Progressive
Bits/(Pixel*Frame) : 0.043
Stream size : 730 MiB (70%)
Title : Mafiaking
Language : Hindi
Default : Yes
Forced : No

Audio #1
ID : 2
Format : AC-3
Format/Info : Audio Coding 3
Mode extension : CM (complete main)
Format settings, Endianness : Big
Codec ID : A_AC3
Duration : 1h 56mn
Bit rate mode : Constant
Bit rate : 128 Kbps
Channel(s) : 2 channels
Channel positions : Front: L R
Sampling rate : 48.0 KHz
Bit depth : 16 bits
Compression mode : Lossy
Stream size : 107 MiB (10%)
Title : Mafiaking
Language : Hindi
Default : Yes
Forced : No

Audio #2
ID : 3
Format : AC-3
Format/Info : Audio Coding 3
Mode extension : CM (complete main)
Format settings, Endianness : Big
Codec ID : A_AC3
Duration : 1h 56mn
Bit rate mode : Constant
Bit rate : 224 Kbps
Channel(s) : 6 channels
Channel positions : Front: L C R, Side: L R, LFE
Sampling rate : 48.0 KHz
Bit depth : 16 bits
Compression mode : Lossy
Stream size : 187 MiB (18%)
Title : Mafiaking
Language : English
Default : No
Forced : No
No links available
No downloads available

Genres

Related movies

Watch Dragon ball super