Remember Me
A password will be e-mailed to you.
Please enter your username or email address. You will receive a link to create a new password via email.
Cancel
PerfectHDMovies.me

Jurassic World (2015) 720p BluRay x264 [Dual-Audio] [English BD 5.1 + Hindi BD 5.1] – Mafiaking – M2Tv – 1.22 GB

NO    

NO NO Uncategorized

7.2
IMDB: 7.2/10 NO votes

NO

(USA)

Report error

Jurassic World (2015) 720p BluRay x264 [Dual-Audio] [English BD 5.1 + Hindi BD 5.1] - Mafiaking - M2Tv @ PerfectHDMovies

Jurassic World (2015) 720p BluRay x264 [Dual-Audio] [English BD 5.1 + Hindi BD 5.1] – Mafiaking – M2Tv

http://www.imdb.com/title/tt0369610/
Ratings: 7.2/10
GENRE: Action, Adventure, Sci-Fi
General
Format : Matroska
Format version : Version 4 / Version 2
File size : 1.22 GiB
Duration : 2h 4mn
Overall bit rate : 1 399 Kbps

Video
ID : 1
Format : AVC
Format/Info : Advanced Video Codec
Format profile : [email protected]
Format settings, CABAC : Yes
Format settings, ReFrames : 4 frames
Codec ID : V_MPEG4/ISO/AVC
Duration : 2h 4mn
Bit rate : 950 Kbps
Width : 1 280 pixels
Height : 640 pixels
Display aspect ratio : 2.000
Frame rate mode : Constant
Frame rate : 23.976 fps
Color space : YUV
Chroma subsampling : 4:2:0
Bit depth : 8 bits
Scan type : Progressive
Bits/(Pixel*Frame) : 0.048
Stream size : 821 MiB (66%)
Title : Mafiaking
Language : English
Default : Yes
Forced : No

Audio #1
ID : 2
Format : AC-3
Format/Info : Audio Coding 3
Mode extension : CM (complete main)
Format settings, Endianness : Big
Codec ID : A_AC3
Duration : 2h 4mn
Bit rate mode : Constant
Bit rate : 224 Kbps
Channel(s) : 6 channels
Channel positions : Front: L C R, Side: L R, LFE
Sampling rate : 48.0 KHz
Compression mode : Lossy
Stream size : 199 MiB (16%)
Title : Mafiaking
Language : Hindi
Default : Yes
Forced : No

Audio #2
ID : 3
Format : AC-3
Format/Info : Audio Coding 3
Mode extension : CM (complete main)
Format settings, Endianness : Big
Codec ID : A_AC3
Duration : 2h 4mn
Bit rate mode : Constant
Bit rate : 224 Kbps
Channel(s) : 6 channels
Channel positions : Front: L C R, Side: L R, LFE
Sampling rate : 48.0 KHz
Compression mode : Lossy
Stream size : 199 MiB (16%)
Title : Mafiaking
Language : English
Default : No
Forced : No
No links available
No downloads available

Genres

Related movies

Watch Dragon ball super