Remember Me
A password will be e-mailed to you.
Please enter your username or email address. You will receive a link to create a new password via email.
Cancel
PerfectHDMovies.me

Jungle Book (2016) 1080p Blu-ray x264 AAC 5.1 Hindi-English Msubs -DDR 2.7 GB

The Jungle Book    

PG 106 min Dual AudioDual Audio Blu-Ray 1080p

7.8
IMDB: 7.8/10 96,221 votes

, , ,

2 nominations.

UK, USA

Report error

Jungle Book (2016) 1080p Blu-ray x264 AAC 5.1 Hindi-English Msubs -DDR

Jungle Book (2016) 1080p Blu-ray x264 AAC 5.1 Hindi-English Msubs -DDR

Source: BD50 @ DDR

Format : Matroska
File size : 2.66 GiB
Duration : 1h 45mn
Overall bit rate : 3 596 Kbps

Video
Format : AVC
Format/Info : Advanced Video Codec
Format profile : [email protected]
Format settings, CABAC : Yes
Format settings, ReFrames : 4 frames
Codec ID : V_MPEG4/ISO/AVC
Duration : 1h 45mn
Bit rate : 3 191 Kbps
Width : 1 920 pixels
Height : 1 040 pixels
Display aspect ratio : 1.85:1
Frame rate mode : Constant
Frame rate : 23.976 (24000/1001) fps
Color space : YUV
Chroma subsampling : 4:2:0
Bit depth : 8 bits
Scan type : Progressive
Bits/(Pixel*Frame) : 0.067
Stream size : 2.36 GiB (89%)
Color primaries : BT.709
Transfer characteristics : BT.709
Matrix coefficients : BT.709

Audio #1
Format : AAC
Format/Info : Advanced Audio Codec
Format profile : LC
Codec ID : A_AAC
Duration : 1h 45mn
Bit rate : 192 Kbps
Channel(s) : 6 channels
Channel positions : Front: L C R, Side: L R, LFE
Sampling rate : 48.0 KHz
Frame rate : 46.875 fps (1024 spf)
Compression mode : Lossy
Delay relative to video : 9ms
Stream size : 145 MiB (5%)
Language : Hindi
Default : Yes
Forced : No


Audio #2
Format : AAC
Format/Info : Advanced Audio Codec
Format profile : LC
Codec ID : A_AAC
Duration : 1h 45mn
Bit rate : 192 Kbps
Channel(s) : 6 channels
Channel positions : Front: L C R, Side: L R, LFE
Sampling rate : 48.0 KHz
Frame rate : 46.875 fps (1024 spf)
Compression mode : Lossy
Delay relative to video : 9ms
Stream size : 145 MiB (5%)
Language : English
Default : Yes
Forced : No

Jungle Book (2016) 1080p Blu-ray x264 AAC 5.1 Hindi-English Msubs -DDR Jungle Book (2016) 1080p Blu-ray x264 AAC 5.1 Hindi-English Msubs -DDR Jungle Book (2016) 1080p Blu-ray x264 AAC 5.1 Hindi-English Msubs -DDR

LETWATACH
*
*
*
USERFILES
*
*
*
*
GO4UP
 
No links available
No downloads available

Genres

Related movies

Watch Dragon ball super