Remember Me
A password will be e-mailed to you.
Please enter your username or email address. You will receive a link to create a new password via email.
Cancel
PerfectHDMovies.me

Jugni (2016) 1080p x264 AC3 5.1 MSubs -DDR 3.53GB

Jugni    

N/A 115 min Bollywood

7.1
IMDB: 7.1/10 40 votes

, , ,

N/A

India

Report error

 

Jugni (2016) 1080p x264 AC3 5.1 MSubs -DDR

 Jugni (2016) 1080p x264 AC3 5.1 MSubs -DDR 3.53GB

File size : 3.49 GiB
Duration : 1 h 47 min
Overall bit rate : 4 643 kb/s

Video
Format : AVC
Format/Info : Advanced Video Codec
Format profile : [email protected]
Format settings, CABAC : Yes
Format settings, ReFrames : 5 frames
Codec ID : V_MPEG4/ISO/AVC
Duration : 1 h 47 min
Bit rate : 4 000 kb/s
Width : 1 920 pixels
Height : 816 pixels
Display aspect ratio : 2.35:1
Frame rate mode : Constant
Frame rate : 24.000 FPS
Color space : YUV
Chroma subsampling : 4:2:0
Bit depth : 8 bits
Scan type : Progressive
Bits/(Pixel*Frame) : 0.106
Stream size : 3.00 GiB (86%)

Format : AC-3
Format/Info : Audio Coding 3
Mode extension : CM (complete main)
Format settings, Endianness : Big
Codec ID : A_AC3
Duration : 1 h 47 min
Bit rate mode : Constant
Bit rate : 640 kb/s
Channel(s) : 6 channels
Channel positions : Front: L C R, Side: L R, LFE
Sampling rate : 48.0 kHz
Frame rate : 31.250 FPS (1536 spf)
Compression mode : Lossy
Delay relative to video : 24 ms
Stream size : 492 MiB (14%)
Language : Hindi
Default : Yes
Forced : No

    
 Jugni (2016) 1080p x264 AC3 5.1 MSubs -DDR 3.53GB Jugni (2016) 1080p x264 AC3 5.1 MSubs -DDR 3.53GB Jugni (2016) 1080p x264 AC3 5.1 MSubs -DDR 3.53GB

LETWATCH

USERSCLOUD
*
*
*
MULTIUP
*
JHEBERG
*
GO4UP 
 

 

No links available
No downloads available

Genres

Related movies

Watch Dragon ball super