Remember Me
A password will be e-mailed to you.
Please enter your username or email address. You will receive a link to create a new password via email.
Cancel
PerfectHDMovies.me

Ju-On The Grudge (2002) x264 720p UNCUT BluRay Eng Subs {Dual Audio} [Hindi 2.0 + Japanese 5.1] Exclusive By DREDD 0.99 GB

Ju-on: The Grudge    

R 92 min Dual AudioDual Audio Blu-Ray 720p

6.7
IMDB: 6.7/10 30,496 votes

, , ,

1 win & 1 nomination.

Japan

Report error

Video


ID : 1
Format : AVC
Format/Info : Advanced Video Codec
Format profile : [email protected]
Format settings, CABAC : Yes
Format settings, ReFrames : 4 frames
Codec ID : V_MPEG4/ISO/AVC
Duration : 1h 32mn
Bit rate : 1 200 Kbps
Width : 1 280 pixels
Height : 704 pixels
Display aspect ratio : 16:9
Frame rate mode : Constant
Frame rate : 23.976
Color space : YUV
Chroma subsampling : 4:2:0
Bit depth : 8 bits
Scan type : Progressive
Bits/(Pixel*Frame) : 0.056
Stream size : 790 MiB (79%)
Title : Ju-On The Grudge BD 720p 2002
Writing library : x264 core 142 r2479 dd79a61
Default : Yes
Forced : No




Audio #1
ID : 2
Format : AC-3
Format/Info : Audio Coding 3
Format profile : Dolby Digital
Mode extension : CM (complete main)
Format settings, Endianness : Big
Codec ID : A_AC3
Duration : 1h 32mn
Bit rate mode : Constant
Bit rate : 128 Kbps
Channel(s) : 2 channels
Channel positions : Front: L R
Sampling rate : 48.0 KHz
Title : Hindi – DREDD
Language : Hindi
Default : Yes
Forced : Yes


Audio #2
ID : 3
Format : AAC
Format/Info : Advanced Audio Codec
Format profile : LC
Codec ID : A_AAC
Duration : 1h 32mn
Bit rate : 192 Kbps
Channel(s) : 6 channels
Channel positions : Front: L C R, Side: L R, LFE
Sampling rate : 48.0 KHz
Title : Japanese
Language : Japanese
Default : No
Forced : No


Text
ID : 4
Format : UTF-8
Codec ID : S_TEXT/UTF8
Codec ID/Info : UTF-8 Plain Text
Duration : 1h 27mn
Bit rate : 15 bps
Count of elements : 493
Stream size : 9.83 KiB (0%)
Title : English
Language : English
Default : Yes
Forced : No


image.png

image.png

03_2.png

image.png

image.png

image.png

image.png

image.png

image.png

image.png

image.png

Quote:
Uploader’s NOTE :Perfectly Sync Hindi Audio By My Self..It’s Dredd Exclusive Released..!!

Ready For Takashi Shimizu’s ORIGINAL Ju-ON Horror Movie in Hindi..!!! UNCUT Part in Japanese Audio, Also Included English Subs
INDIAN DUBBED

Give Credits wherever you share/use Hindi Audio
!!!…Keep  After Download…!!!
Please GiVE Your Valuable Comments.

 

No links available
No downloads available

Genres

Related movies

Watch Dragon ball super