Remember Me
A password will be e-mailed to you.
Please enter your username or email address. You will receive a link to create a new password via email.
Cancel
PerfectHDMovies.me

Jigariyaa (2014) WEB-DL Untouched Esub Hon3yHD [Exclusive] 1.08 GiB

Jigariyaa    

N/A N/A BollywoodBollywood WEB-DL 720p

7.0
IMDB: 7.0/10 71 votes

, , ,

N/A

India

Report error

Jigariyaa (2014) WEB-DL Untouched Esub Hon3yHD [Exclusive]

Jigariyaa (2014) WEB-DL Untouched Esub Hon3yHD [Exclusive]

Format                      : Matroska
Format version              : Version 4 / Version 2
File size                   : 1.08 GiB
Duration                    : 2 h 17 min
Overall bit rate            : 1 128 kb/s

Video
ID                          : 1
Format                      : AVC
Format/Info                 : Advanced Video Codec
Format profile              : [email protected]
Format settings, CABAC      : Yes
Format settings, ReFrames   : 3 frames
Codec ID                    : V_MPEG4/ISO/AVC
Duration                    : 2 h 17 min
Bit rate                    : 998 kb/s
Width                       : 854 pixels
Height                      : 366 pixels
Display aspect ratio        : 2.35:1
Frame rate mode             : Constant
Frame rate                  : 25.000 FPS
Stream size                 : 979 MiB (88%)

Audio
ID                          : 2
Format                      : AAC
Format/Info                 : Advanced Audio Codec
Format profile              : LC
Codec ID                    : A_AAC
Duration                    : 2 h 17 min
Bit rate                    : 128 kb/s
Channel(s)                  : 2 channels
Channel positions           : Front: L R
Sampling rate               : 44.1 kHz
Frame rate                  : 43.066 FPS (1024 spf)
Compression mode            : Lossy
Delay relative to video     : -60 ms
Stream size                 : 125 MiB (11%)
Default                     : Yes

 

Jigariyaa (2014) WEB-DL Untouched Esub Hon3yHD [Exclusive]Jigariyaa (2014) WEB-DL Untouched Esub Hon3yHD [Exclusive]Jigariyaa (2014) WEB-DL Untouched Esub Hon3yHD [Exclusive]

LETWATACH
*
*
*
USERFILES
*
*
*
*
GO4UP 
 
No links available
No downloads available

Genres

Related movies

Watch Dragon ball super