Remember Me
A password will be e-mailed to you.
Please enter your username or email address. You will receive a link to create a new password via email.
Cancel
PerfectHDMovies.me

Jigar Kaleja [2015] Hindi 720p HDRip x264…7Star

Khaleja    

N/A 170 min South Dubbed HDRip 720p

7.7
IMDB: 7.7/10 4,130 votes

, , ,

3 wins & 1 nomination.

India

Report error

Jigar Kaleja [2015] Hindi 720p HDRip x264 7Star @perfecthdmovies

Jigar Kaleja [2015] Hindi 720p HDRip x264 7Star

General
Complete name : Jigar Kaleja [2015] Hindi 720p HDRip x264...7Star
Format : MPEG-4
Format profile : Base Media / Version 2
Codec ID : mp42
File size : 2.50 GiB
Duration : 2h 39mn
Overall bit rate mode : Variable
Overall bit rate : 2 249 Kbps
Video
ID : 1
Format : AVC
Format/Info : Advanced Video Codec
Format profile : [email protected]
Format settings, CABAC : Yes
Format settings, ReFrames : 1 frame
Format settings, GOP : M=1, N=60
Codec ID : avc1
Codec ID/Info : Advanced Video Coding
Duration : 2h 39mn
Bit rate : 2 055 Kbps
Maximum bit rate : 7 914 Kbps
Width : 1 280 pixels
Height : 720 pixels
Display aspect ratio : 16:9
Frame rate mode : Constant
Frame rate : 24.000 fps
Color space : YUV
Chroma subsampling : 4:2:0
Bit depth : 8 bits
Scan type : Progressive
Bits/(Pixel*Frame) : 0.093
Stream size : 2.29 GiB (91%)
Audio
ID : 2
Format : AAC
Format/Info : Advanced Audio Codec
Format profile : LC
Codec ID : 40
Duration : 2h 39mn
Bit rate mode : Variable
Bit rate : 192 Kbps
Maximum bit rate : 201 Kbps
Channel(s) : 2 channels
Channel positions : Front: L R
Sampling rate : 44.1 KHz
Compression mode : Lossy
Stream size : 219 MiB (9%)
Title : 7Star






*
USERSFILES
*
*
*
*
GO4UP 
 

 

No links available
No downloads available

Genres

Related movies

Watch Dragon ball super