Remember Me
A password will be e-mailed to you.
Please enter your username or email address. You will receive a link to create a new password via email.
Cancel
PerfectHDMovies.pw

Jason Bourne 2016 1080p BDRip x264 Hindi DD.5 – Hon3y – 3.0 GB

Jason Bourne    

PG-13 123 min Dual AudioDual Audio Blu-Ray 1080p

6.8
IMDB: 6.8/10 89,425 votes

, , ,

3 nominations.

UK, China, USA

Report error

Jason Bourne 2016 1080p BDRip x264 Hindi DD.5 - Hon3y - 3.0 GB

Jason Bourne 2016 1080p BDRip x264 Hindi DD.5 – Hon3y – 3.0 GB

General
Format                                   : Matroska
Format version                           : Version 4 / Version 2
File size                                : 3.00 GiB
Duration                                 : 2h 3mn
Overall bit rate                         : 3 483 Kbps


Video
ID                                       : 1
Format                                   : AVC
Format/Info                              : Advanced Video Codec
Format profile                           : High@L4.1
Format settings, CABAC                   : Yes
Format settings, ReFrames                : 5 frames
Codec ID                                 : V_MPEG4/ISO/AVC
Duration                                 : 2h 3mn
Bit rate                                 : 3 258 Kbps
Width                                    : 1 920 pixels
Height                                   : 800 pixels
Display aspect ratio                     : 2.40:1
Frame rate mode                          : Constant
Frame rate                               : 23.976 fps
Color space                              : YUV
Chroma subsampling                       : 4:2:0
Bit depth                                : 8 bits
Scan type                                : Progressive
Bits/(Pixel*Frame)                       : 0.088
Stream size                              : 2.74 GiB (92%)
Default                                  : Yes
Forced                                   : No
Color range                              : Limited
Color primaries                          : Generic film
Transfer characteristics                 : BT.709
Matrix coefficients                      : BT.709

Audio
ID                                       : 2
Format                                   : AC-3
Format/Info                              : Audio Coding 3
Mode extension                           : CM (complete main)
Format settings, Endianness              : Big
Codec ID                                 : A_AC3
Duration                                 : 2h 3mn
Bit rate mode                            : Constant
Bit rate                                 : 224 Kbps
Channel(s)                               : 6 channels
Channel positions                        : Front: L C R, Side: L R, LFE
Sampling rate                            : 48.0 KHz
Bit depth                                : 16 bits
Compression mode                         : Lossy
Stream size                              : 197 MiB (6%)
Language                                 : Hindi
Default                                  : Yes
Forced                                   : No

ss

Jason Bourne 2016 1080p BDRip x264 Hindi DD.5 - Hon3y - 3.0 GB
Jason Bourne 2016 1080p BDRip x264 Hindi DD.5 - Hon3y - 3.0 GB
Jason Bourne 2016 1080p BDRip x264 Hindi DD.5 - Hon3y - 3.0 GB

wo

*
*
FLASHSX
*
LETWATCH
dl
*
*
*
INDISHARE
*
BDUPLOD
*
*
JHEBERG
*

No links available
No downloads available

Genres

Related movies