Remember Me
A password will be e-mailed to you.
Please enter your username or email address. You will receive a link to create a new password via email.
Cancel
PerfectHDMovies.me

Jack Reacher (2012) BluRay Rip 720p [Dual Audio] 5 1 [Hindi+English] by [email protected] [ExD] 1.2Gb

Jack Reacher    

PG-13 130 min Dual AudioDual Audio Blu-Ray 720p

7.0
IMDB: 7.0/10 223,149 votes

, , ,

1 win & 4 nominations.

USA

Report error

Jack Reacher (2012) BluRay Rip 720p [Dual Audio] 5 1 [Hindi+English] by K@rtik [ExD]

Jack Reacher (2012) BluRay Rip 720p [Dual Audio] 5 1 [Hindi+English] by [email protected] [ExD] 1.2Gb

Rip Information
Code:
]Format : Matroska
Format version : Version 4 / Version 2
File size : 1.19 GiB
Duration : 2h 10mn
Overall bit rate : 1 304 Kbps
Movie name : Jack Reacher (2012).BluRay Rip.720p.[Dual Audio].5.1 [Hindi+English].by [email protected] [ExD Exclusive]

Video
Code:
Format : AVC
Format/Info : Advanced Video Codec
Format profile : [email protected]
Format settings, CABAC : Yes
Format settings, ReFrames : 5 frames
Codec ID : V_MPEG4/ISO/AVC
Duration : 2h 10mn
Bit rate : 535 Kbps
Width : 1 264 pixels
Height : 544 pixels
Display aspect ratio : 2.35:1
Frame rate mode : Constant
Frame rate : 23.976 fps
Color space : YUV
Chroma subsampling : 4:2:0
Bit depth : 8 bits
Scan type : Progressive
Bits/(Pixel*Frame) : 0.032
Stream size : 476 MiB (39%)
Title : [email protected]
Writing library : x264 core 130 r2273 b3065e6

Audio 1
Code:
Format : AC-3
Format/Info : Audio Coding 3
Mode extension : CM (complete main)
Format settings, Endianness : Big
Codec ID : A_AC3
Duration : 2h 10mn
Bit rate mode : Constant
Bit rate : 320 Kbps
Channel(s) : 6 channels
Channel positions : Front: L C R, Side: L R, LFE
Sampling rate : 48.0 KHz
Bit depth : 16 bits
Compression mode : Lossy
Stream size : 298 MiB (25%)
Title : [email protected]
Language : Hindi

Audio 2
Code:
Format : AC-3
Format/Info : Audio Coding 3
Mode extension : CM (complete main)
Format settings, Endianness : Big
Codec ID : A_AC3
Duration : 2h 10mn
Bit rate mode : Constant
Bit rate : 448 Kbps
Channel(s) : 6 channels
Channel positions : Front: L C R, Side: L R, LFE
Sampling rate : 48.0 KHz
Bit depth : 16 bits
Compression mode : Lossy
Delay relative to video : 1s 0ms
Stream size : 418 MiB (34%)
Title : [email protected]
Language : Hindi
Default : Yes

==Team EXD Exclusive==
Original DVD Untuched Hindi Audio
No links available
No downloads available

Genres

Related movies

Watch Dragon ball super