Remember Me
A password will be e-mailed to you.
Please enter your username or email address. You will receive a link to create a new password via email.
Cancel
PerfectHDMovies.me

Ishqiya (2010) WEB-HD Untouched 1080p Hon3yHD~1.95GB

Ishqiya    

N/A 118 min BollywoodBollywood WEB-DL 1080p

7.4
IMDB: 7.4/10 6,073 votes

, , ,

8 wins & 11 nominations.

India

Report error

Ishqiya (2010) WEB-HD Untouched 1080p Hon3yHD

Ishqiya (2010) WEB-HD Untouched 1080p Hon3yHD~1.95GB

Information

Format : MPEG-4
Format profile : Base Media
Codec ID : isom (isom/iso2/avc1/mp41)
File size : 1.95 GiB
Duration : 1h 55mn
Overall bit rate mode : Variable
Overall bit rate : 2 423 Kbps

Video

ID : 1
Format : AVC
Format/Info : Advanced Video Codec
Format profile : [email protected]
Format settings, CABAC : Yes
Format settings, ReFrames : 3 frames
Codec ID : avc1
Codec ID/Info : Advanced Video Coding
Duration : 1h 55mn
Bit rate : 2 294 Kbps
Width : 1 920 pixels
Height : 1 080 pixels
Display aspect ratio : 16:9
Frame rate mode : Constant
Frame rate : 25.000 fps
Color space : YUV
Chroma subsampling : 4:2:0
Bit depth : 8 bits
Scan type : Progressive
Bits/(Pixel*Frame) : 0.044
Stream size : 1.85 GiB (95%)

Audio

ID : 2
Format : AAC
Format/Info : Advanced Audio Codec
Format profile : LC
Codec ID : 40
Duration : 1h 55mn
Bit rate mode : Variable
Bit rate : 126 Kbps
Channel(s) : 2 channels
Channel positions : Front: L R
Sampling rate : 44.1 KHz
Frame rate : 43.066 fps (1024 spf)
Compression mode : Lossy
Stream size : 104 MiB (5%)

 http://extraimago.com/images/2016/05/08/ishqiya.jpg
http://extraimago.com/images/2016/05/08/s10.jpg
http://extraimago.com/images/2016/05/08/s5.jpg
LETWATACH
*
USERSCLOUD
*
*
*
*
*
No links available
No downloads available

Genres

Related movies

Watch Dragon ball super