Remember Me
A password will be e-mailed to you.
Please enter your username or email address. You will receive a link to create a new password via email.
Cancel
PerfectHDMovies.me

Iron Man 3 (2013) 1080p BDRip Dual Audio Org DD Hindi 2.0+Eng 5.1 -~{DOOMSDAY}~ 4.61 GB

Iron Man 3    

PG-13 130 min Dual AudioDual Audio Blu-Ray 1080p

7.2
IMDB: 7.2/10 567,520 votes

, , ,

Nominated for 1 Oscar. Another 17 wins & 53 nominations.

USA

Report error

Iron Man 3 (2013) 1080p BDRip Dual Audio Org DD Hindi 2.0+Eng 5.1 -~{DOOMSDAY}~ 4.61 GB

Iron Man 3 (2013) 1080p BDRip Dual Audio Org DD Hindi 2.0+Eng 5.1 -~{DOOMSDAY}~ 4.61 GB

Complete name                            : Iron.Man.3.(2013).[email protected]}~-.mkv
Format                                   : Matroska
Format version                           : Version 4 / Version 2
File size                                : 4.55 GiB
Duration                                 : 2 h 5 min
Overall bit rate mode                    : Variable
Overall bit rate                         : 5 206 kb/s
Movie name                               : Iron.Man.3.(2013).[email protected]}~-

Video
ID                                       : 1
Format                                   : AVC
Format/Info                              : Advanced Video Codec
Format profile                           : [email protected]
Format settings, CABAC                   : Yes
Format settings, ReFrames                : 5 frames
Codec ID                                 : V_MPEG4/ISO/AVC
Duration                                 : 2 h 5 min
Bit rate mode                            : Variable
Bit rate                                 : 4 192 kb/s
Maximum bit rate                         : 62.5 Mb/s
Width                                    : 1 920 pixels
Height                                   : 800 pixels
Display aspect ratio                     : 2.40:1
Frame rate mode                          : Constant
Frame rate                               : 25.000 FPS
Original frame rate                      : 23.976 (24000/1001) FPS
Color space                              : YUV
Chroma subsampling                       : 4:2:0
Bit depth                                : 8 bits
Scan type                                : Progressive
Bits/(Pixel*Frame)                       : 0.109
Stream size                              : 3.82 GiB (84%)
Title                                    : Iron.Man.3.(2013).[email protected]}~-
Language                                 : English
Default                                  : Yes
Forced                                   : No

Audio #1
ID                                       : 2
Format                                   : AC-3
Format/Info                              : Audio Coding 3
Mode extension                           : CM (complete main)
Format settings, Endianness              : Big
Codec ID                                 : A_AC3
Duration                                 : 2 h 5 min
Bit rate mode                            : Constant
Bit rate                                 : 448 kb/s
Channel(s)                               : 6 channels
Channel positions                        : Front: L C R, Side: L R, LFE
Sampling rate                            : 48.0 kHz
Frame rate                               : 31.250 FPS (1536 spf)
Compression mode                         : Lossy
Stream size                              : 401 MiB (9%)
Title                                    : RiPPER~ L3GEND~ Org BD [email protected]~
Language                                 : English
Default                                  : No
Forced                                   : No

Audio #2
ID                                       : 3
Format                                   : AC-3
Format/Info                              : Audio Coding 3
Mode extension                           : CM (complete main)
Format settings, Endianness              : Big
Codec ID                                 : A_AC3
Duration                                 : 2 h 5 min
Bit rate mode                            : Constant
Bit rate                                 : 384 kb/s
Channel(s)                               : 2 channels
Channel positions                        : Front: L R
Sampling rate                            : 48.0 kHz
Frame rate                               : 31.250 FPS (1536 spf)
Compression mode                         : Lossy
Stream size                              : 344 MiB (7%)
Title                                    : RiPPER~ L3GEND~ Org DD [email protected]~
Language                                 : Hindi
Default                                  : Yes
Forced                                   : No

Text
ID                                       : 4
Format                                   : UTF-8
Codec ID                                 : S_TEXT/UTF8
Codec ID/Info                            : UTF-8 Plain Text
Duration                                 : 2 h 4 min
Bit rate                                 : 72 b/s
Count of elements                        : 2172
Stream size                              : 65.8 KiB (0%)
Title                                    : L3GEND~
Language                                 : English
Default                                  : No
Forced                                   : No

ss

Iron Man 3 (2013) 1080p BDRip Dual Audio Org DD Hindi 2.0+Eng 5.1 -~{DOOMSDAY}~ 4.61 GBIron Man 3 (2013) 1080p BDRip Dual Audio Org DD Hindi 2.0+Eng 5.1 -~{DOOMSDAY}~ 4.61 GBIron Man 3 (2013) 1080p BDRip Dual Audio Org DD Hindi 2.0+Eng 5.1 -~{DOOMSDAY}~ 4.61 GB

 Sample

wo

VODLOCKER
*
WATCHVIDEO
*
FLASHSX
*
LETWATCH
dl
*
*
*
INDISHARE
*
BDUPLOD
*
*
*
GO4UP 

No links available
No downloads available

Genres

Related movies

Watch Dragon ball super