Remember Me
A password will be e-mailed to you.
Please enter your username or email address. You will receive a link to create a new password via email.
Cancel
PerfectHDMovies.me

Insaaf Kaun Karega (1984) 720p WebHD AVC – AAC 2CH CA (DUS) 2.21 GB

Insaaf Kaun Karega    

N/A N/A BollywoodBollywood WEB-DL 720p

5.3
IMDB: 5.3/10 32 votes

, , ,

N/A

India

Report error

General
Complete name : C:\Users\CA\Downloads\Insaaf Kaun Karega (1984) 720p WebHD AVC - AAC 2CH CA (DUS).mp4
Format                                   : MPEG-4
Format profile                           : Base Media / Version 2
Codec ID                                 : mp42
File size                                : 2.21 GiB
Duration                                 : 2h 35mn
Overall bit rate mode                    : Variable
Overall bit rate                         : 2 040 Kbps
Encoded date                             : UTC 2015-12-20 20:33:52
Tagged date                              : UTC 2015-12-20 20:33:52
gsst                                     : 0
gstd                                     : 9315985

Video
ID                                       : 1
Format                                   : AVC
Format/Info                              : Advanced Video Codec
Format profile                           : [email protected]
Format settings, CABAC                   : Yes
Format settings, ReFrames                : 1 frame
Codec ID                                 : avc1
Codec ID/Info                            : Advanced Video Coding
Duration                                 : 2h 35mn
Bit rate                                 : 1 846 Kbps
Maximum bit rate                         : 6 414 Kbps
Width                                    : 1 280 pixels
Height                                   : 720 pixels
Display aspect ratio                     : 16:9
Frame rate mode                          : Constant
Frame rate                               : 24.000 fps
Color space                              : YUV
Chroma subsampling                       : 4:2:0
Bit depth                                : 8 bits
Scan type                                : Progressive
Bits/(Pixel*Frame)                       : 0.083
Stream size                              : 2.00 GiB (90%)
Tagged date                              : UTC 2015-12-20 20:37:01

Audio
ID                                       : 2
Format                                   : AAC
Format/Info                              : Advanced Audio Codec
Format profile                           : LC
Codec ID                                 : 40
Duration                                 : 2h 35mn
Bit rate mode                            : Variable
Bit rate                                 : 192 Kbps
Maximum bit rate                         : 202 Kbps
Channel(s)                               : 2 channels
Channel positions                        : Front: L R
Sampling rate                            : 44.1 KHz
Compression mode                         : Lossy
Stream size                              : 213 MiB (9%)
Title                                    : IsoMedia File Produced by Google, 5-11-2011
Encoded date                             : UTC 2015-12-20 20:35:43
Tagged date                              : UTC 2015-12-20 20:37:01

*
*
*
 
No links available
No downloads available

Genres

Related movies

Watch Dragon ball super