Remember Me
A password will be e-mailed to you.
Please enter your username or email address. You will receive a link to create a new password via email.
Cancel
PerfectHDMovies.me

Independence Day Resurgence 2016 Hindi CAMRIP – Zi$t – CTRC 845Mb

Independence Day: Resurgence    

PG-13 120 min Dual AudioDual Audio Pre-Releases (Latest)Hollywood Pre-Releases (Latest)

5.9
IMDB: 5.9/10 7,058 votes

, , ,

1 win.

USA

Report error

Independence Day Resurgence 2016 Hindi - CAMRIP - Zi$t-CTRC

Independence Day Resurgence 2016 Hindi – CAMRIP – Zi$t – CTRC 845Mb

General
Complete name : Independence Day Resurgence 2016 
Format : MPEG-4
Format profile : Base Media
Codec ID : isom
File size : 845 MiB
Duration : 2h 10mn
Overall bit rate mode : Variable
Overall bit rate : 908 Kbps
Writing application : Lavf55.22.102

Video
ID : 1
Format : AVC
Format/Info : Advanced Video Codec
Format profile : [email protected]
Format settings, CABAC : No
Format settings, ReFrames : 1 frame
Codec ID : avc1
Codec ID/Info : Advanced Video Coding
Duration : 2h 10mn
Bit rate : 750 Kbps
Width : 720 pixels
Height : 304 pixels
Display aspect ratio : 2.35:1
Frame rate mode : Constant
Frame rate : 25.000 fps
Color space : YUV
Chroma subsampling : 4:2:0
Bit depth : 8 bits
Scan type : Progressive
Bits/(Pixel*Frame) : 0.137
Stream size : 699 MiB (83%)

Audio
ID : 2
Format : AAC
Format/Info : Advanced Audio Codec
Format profile : LC
Codec ID : 40
Duration : 2h 10mn
Bit rate mode : Variable
Bit rate : 152 Kbps
Maximum bit rate : 192 Kbps
Channel(s) : 2 channels
Channel positions : Front: L R
Sampling rate : 48.0 KHz
Compression mode : Lossy
Stream size : 141 MiB (17%)
Language : Hindi
No links available
No downloads available

Genres

Related movies

Watch Dragon ball super